<?xml version="1.0" standalone="no"?>
<!DOCTYPE svg PUBLIC "-//W3C//DTD SVG 1.1//EN" "http://www.w3.org/Graphics/SVG/1.1/DTD/svg11.dtd" >
<svg xmlns="http://www.w3.org/2000/svg" xmlns:xlink="http://www.w3.org/1999/xlink" version="1.1">
<metadata>
Created by FontForge 20200314 at Tue Jul 14 03:29:37 2020
 By INNAGP01
Font Awesome
</metadata>
<defs>
<font id="FontAwesome5ProLight" horiz-adv-x="512" >
  <font-face 
    font-family="Font Awesome 5 Pro"
    font-weight="400"
    font-stretch="normal"
    units-per-em="512"
    panose-1="2 0 5 3 0 0 0 0 0 0"
    ascent="448"
    descent="-64"
    bbox="-0.451613 -64.5 641 448.5"
    underline-thickness="0"
    underline-position="5"
    unicode-range="U+F000-F7D9"
  />
<missing-glyph horiz-adv-x="0" 
 />
    <glyph glyph-name=".notdef" horiz-adv-x="0" 
 />
    <glyph glyph-name=".null" horiz-adv-x="0" 
 />
    <glyph glyph-name="nonmarkingreturn" horiz-adv-x="170" 
 />
    <glyph glyph-name="glass-martini" unicode="&#xf000;" 
d="M502 390q10 11 10 24.5t-9.5 23.5t-24.5 10h-444q-15 0 -24.5 -10t-9.5 -23.5t10 -24.5l230 -230v-192h-53q-11 0 -19 -8t-8 -19q0 -2 1.5 -3.5t3.5 -1.5h182q2 0 3.5 1.5t1.5 3.5q0 11 -8 19t-19 8h-53v192zM256 190l-223 223q-1 1 -0.5 2t1.5 1h444q1 0 1.5 -1t-0.5 -2
z" />
    <glyph glyph-name="search" unicode="&#xf002;" 
d="M509 -34l-129 129q-4 4 -9 4h-10q26 28 40.5 64.5t14.5 76.5q0 57 -28 104.5t-75.5 75.5t-104.5 28t-104.5 -28t-75.5 -75.5t-28 -104.5t28 -104.5t75.5 -75.5t104.5 -28q40 0 76.5 14.5t64.5 40.5v-10q0 -5 4 -8l129 -129q3 -4 8 -4t9 4l10 9q3 4 3 9t-3 8zM208 64
q-48 0 -88.5 23.5t-64 64t-23.5 88.5t23.5 88.5t64 64t88.5 23.5t88.5 -23.5t64 -64t23.5 -88.5t-23.5 -88.5t-64 -64t-88.5 -23.5z" />
    <glyph glyph-name="heart" unicode="&#xf004;" 
d="M462 385q-26 23 -60 29t-67.5 -5t-58.5 -37l-20 -21l-20 21q-21 22 -52 34q-34 13 -67 9q-37 -4 -67.5 -30t-42.5 -64t-3.5 -76.5t36.5 -67.5l193 -199q10 -10 23 -10t23 10l193 200q28 28 36.5 66.5t-3.5 76.5t-43 64zM449 200l-193 -200l-193 200q-20 20 -27.5 49.5
t0.5 57.5q9 32 34.5 53.5t56.5 23.5q25 2 51 -10q21 -10 35 -25l43 -44l43 44q13 15 35 24q26 12 51 11q31 -2 56.5 -23.5t34.5 -53.5q8 -28 0.5 -57.5t-27.5 -49.5z" />
    <glyph glyph-name="star" unicode="&#xf005;" horiz-adv-x="576" 
d="M528 277l-146 21l-65 132q-6 12 -17.5 16t-23 0t-17.5 -16l-65 -132l-146 -21q-13 -2 -20.5 -12t-7 -22t9.5 -21l106 -103l-25 -146q-2 -12 4.5 -22.5t18.5 -13.5t23 3l131 68l131 -68q11 -6 23 -3t18.5 13.5t4.5 22.5l-25 146l106 103q9 9 9.5 21t-7 22t-20.5 12z
M406 130l28 -162l-146 77l-145 -77l27 162l-117 115l162 24l73 147l73 -147l163 -24z" />
    <glyph glyph-name="user" unicode="&#xf007;" horiz-adv-x="448" 
d="M314 160q-13 0 -34 -7q-14 -4 -23 -6q-15 -3 -33 -3t-33 3q-9 2 -23 6q-21 7 -34 7q-36 0 -67 -18t-49 -49t-18 -67v-42q0 -20 14 -34t34 -14h352q20 0 34 14t14 34v42q0 36 -18 67t-49 49t-67 18zM416 -16q0 -7 -4.5 -11.5t-11.5 -4.5h-352q-7 0 -11.5 4.5t-4.5 11.5v42
q0 42 30 72t72 30q8 0 25 -5q34 -11 65 -11t65 11q17 5 25 5q42 0 72 -30t30 -72v-42zM224 192q35 0 64.5 17t46.5 46.5t17 64.5t-17 64.5t-46.5 46.5t-64.5 17t-64.5 -17t-46.5 -46.5t-17 -64.5t17 -64.5t46.5 -46.5t64.5 -17zM224 416q40 0 68 -28t28 -68t-28 -68t-68 -28
t-68 28t-28 68t28 68t68 28z" />
    <glyph glyph-name="check" unicode="&#xf00c;" horiz-adv-x="448" 
d="M414 356l-281 -280l-99 99q-3 4 -8 4t-8 -4l-12 -11q-3 -4 -3 -9t3 -8l119 -119q4 -4 8.5 -4t8.5 4l300 300q3 3 3 8t-3 9l-12 11q-3 4 -8 4t-8 -4z" />
    <glyph glyph-name="times" unicode="&#xf00d;" horiz-adv-x="320" 
d="M194 192l103 103l21 21q2 2 2 5.5t-2 5.5l-23 23q-2 2 -5.5 2t-5.5 -2l-124 -124l-124 124q-2 2 -5.5 2t-5.5 -2l-23 -23q-2 -2 -2 -5.5t2 -5.5l124 -124l-124 -124q-2 -2 -2 -5.5t2 -5.5l23 -23q2 -2 5.5 -2t5.5 2l124 124l124 -124q2 -2 5.5 -2t5.5 2l23 23q2 2 2 5.5
t-2 5.5z" />
    <glyph glyph-name="search-plus" unicode="&#xf00e;" 
d="M320 244v-8q0 -5 -3.5 -8.5t-8.5 -3.5h-84v-84q0 -5 -3.5 -8.5t-8.5 -3.5h-8q-5 0 -8.5 3.5t-3.5 8.5v84h-84q-5 0 -8.5 3.5t-3.5 8.5v8q0 5 3.5 8.5t8.5 3.5h84v84q0 5 3.5 8.5t8.5 3.5h8q5 0 8.5 -3.5t3.5 -8.5v-84h84q5 0 8.5 -3.5t3.5 -8.5zM508 -49l-11 -11
q-4 -4 -8.5 -4t-8.5 4l-129 129q-3 3 -3 8v9q-29 -26 -64.5 -40t-75.5 -14q-56 0 -103.5 27.5t-75.5 74.5t-29 104t27.5 105.5t77 77t105.5 27.5t104 -29t74.5 -75.5t27.5 -103.5q0 -40 -14 -75.5t-40 -64.5h9q5 1 8 -3l129 -129q4 -4 4 -8.5t-4 -8.5zM384 240
q0 48 -23.5 88.5t-64 64t-88.5 23.5t-88.5 -23.5t-64 -64t-23.5 -88.5t23.5 -88.5t64 -64t88.5 -23.5t88.5 23.5t64 64t23.5 88.5z" />
    <glyph glyph-name="search-minus" unicode="&#xf010;" 
d="M308 224h-200q-5 0 -8.5 3.5t-3.5 8.5v8q0 5 3.5 8.5t8.5 3.5h200q5 0 8.5 -3.5t3.5 -8.5v-8q0 -5 -3.5 -8.5t-8.5 -3.5zM508 -49l-11 -11q-4 -4 -8.5 -4t-8.5 4l-129 129q-3 3 -3 8v9q-29 -26 -64.5 -40t-75.5 -14q-56 0 -103.5 27.5t-75.5 74.5t-29 104t27.5 105.5
t77 77t105.5 27.5t104 -29t74.5 -75.5t27.5 -103.5q0 -40 -14 -75.5t-40 -64.5h9q5 1 8 -3l129 -129q4 -4 4 -8.5t-4 -8.5zM384 240q0 48 -23.5 88.5t-64 64t-88.5 23.5t-88.5 -23.5t-64 -64t-23.5 -88.5t23.5 -88.5t64 -64t88.5 -23.5t88.5 23.5t64 64t23.5 88.5z" />
    <glyph glyph-name="power-off" unicode="&#xf011;" 
d="M389 402q53 -34 84 -89.5t31 -120.5q0 -67 -33.5 -124t-90 -90.5t-124 -33.5t-124.5 33.5t-90.5 90t-33.5 123t31 122t84 89.5q5 2 10 1t7 -5l4 -7q3 -5 1.5 -9.5t-5.5 -6.5q-46 -30 -73 -78.5t-27 -104.5q0 -59 29 -108.5t79 -78.5t108.5 -29t108 29t78.5 79t29 107.5
t-27 105.5t-73 77q-4 3 -5.5 7.5t1.5 8.5l4 7q2 5 7 6t10 -1zM272 172v264q0 5 -3.5 8.5t-8.5 3.5h-8q-5 0 -8.5 -3.5t-3.5 -8.5v-264q0 -5 3.5 -8.5t8.5 -3.5h8q5 0 8.5 3.5t3.5 8.5z" />
    <glyph glyph-name="cog" unicode="&#xf013;" 
d="M483 149l-33 19q3 24 0 48l33 19q7 4 10 12t1 16q-17 56 -58 99q-6 6 -14 7.5t-15 -2.5l-33 -19q-19 15 -42 24v38q0 8 -5 14.5t-14 8.5q-57 14 -114 0q-9 -2 -14 -8.5t-5 -14.5v-38q-23 -9 -42 -24l-33 19q-7 4 -15 2.5t-14 -7.5q-41 -43 -58 -99q-2 -8 1 -16t10 -12
l33 -19q-3 -24 0 -48l-33 -19q-7 -4 -10 -12t-1 -16q17 -56 58 -99q6 -6 14 -7.5t15 2.5l33 19q19 -15 42 -24v-38q0 -8 5 -14.5t14 -8.5q57 -14 114 0q9 2 14 8.5t5 14.5v38q23 9 42 24l33 -19q7 -4 15 -2.5t14 7.5q41 43 58 99q2 8 -1 16t-10 12zM417 48l-46 27
q-21 -17 -33.5 -24.5t-37.5 -16.5v-54q-44 -9 -88 0v54q-25 9 -37.5 16t-33.5 25l-46 -27q-30 34 -44 76l46 27q-5 27 -5 41t5 41l-46 27q14 42 44 76l46 -27q21 18 33.5 25t37.5 16v54q44 9 88 0v-54q25 -9 37.5 -16t33.5 -25l46 27q30 -34 44 -76l-46 -27q5 -27 5 -41
t-5 -41l46 -27q-14 -42 -44 -76zM256 288q-40 0 -68 -28t-28 -68t28 -68t68 -28t68 28t28 68t-28 68t-68 28zM256 128q-26 0 -45 19t-19 45t19 45t45 19t45 -19t19 -45t-19 -45t-45 -19z" />
    <glyph glyph-name="home" unicode="&#xf015;" 
d="M510 221l-62 49v76q0 3 -2 4.5t-4 1.5h-20q-2 0 -4 -1.5t-2 -4.5v-50l-140 113q-9 7 -20 7t-20 -7l-234 -188q-2 -2 -2 -4.5t1 -4.5l13 -15q1 -2 3.5 -2.5t4.5 1.5l42 33v-229q0 -13 9.5 -22.5t22.5 -9.5h116q5 0 8.5 3.5t3.5 8.5v132h64v-132q0 -5 3.5 -8.5t8.5 -3.5
h116q13 0 22.5 9.5t9.5 22.5v229l42 -33q2 -2 4.5 -2t3.5 2l13 16q1 2 1 4.5t-2 3.5v1zM416 0h-96v132q0 5 -3.5 8.5t-8.5 3.5h-104q-5 0 -8.5 -3.5t-3.5 -8.5v-132h-96v255l156 126q4 3 8 0l156 -126v-255z" />
    <glyph glyph-name="clock" unicode="&#xf017;" 
d="M256 440q-67 0 -124 -33.5t-90.5 -90.5t-33.5 -124t33.5 -124t90.5 -90.5t124 -33.5t124 33.5t90.5 90.5t33.5 124t-33.5 124t-90.5 90.5t-124 33.5zM472 192q0 -58 -29 -108t-78.5 -79t-108 -29t-108.5 29t-79 78.5t-29 108t29 108.5t78.5 79t108 29t108.5 -29t79 -78.5
t29 -108.5zM323 104l-81 59q-5 3 -5 9v160q0 5 3.5 8.5t8.5 3.5h14q5 0 8.5 -3.5t3.5 -8.5v-146l71 -52q4 -3 4.5 -7.5t-2.5 -8.5l-8 -12q-3 -4 -8 -4.5t-9 2.5z" />
    <glyph glyph-name="download" unicode="&#xf019;" 
d="M452 16q0 -8 -6 -14t-14 -6t-14 6t-6 14t6 14t14 6t14 -6t6 -14zM368 36q-8 0 -14 -6t-6 -14t6 -14t14 -6t14 6t6 14t-6 14t-14 6zM512 84v-104q0 -18 -13 -31t-31 -13h-424q-18 0 -31 13t-13 31v104q0 18 13 31t31 13h99l-56 56q-12 13 -11.5 29t11.5 28t28 12h53v155
q0 17 11.5 28.5t28.5 11.5h96q17 0 28.5 -11.5t11.5 -28.5v-155h53q17 0 28 -12t11.5 -28t-11.5 -29l-56 -56h99q18 0 31 -13t13 -31zM250 66q3 -2 6 -2t6 2l140 141q4 4 2 9t-7 5h-85v187q0 3 -2.5 5.5t-5.5 2.5h-96q-3 0 -5.5 -2.5t-2.5 -5.5v-187h-85q-5 0 -7 -5t2 -9z
M480 84q0 5 -3.5 8.5t-8.5 3.5h-131l-53 -52q-11 -12 -28 -12t-28 12l-53 52h-131q-5 0 -8.5 -3.5t-3.5 -8.5v-104q0 -5 3.5 -8.5t8.5 -3.5h424q5 0 8.5 3.5t3.5 8.5v104z" />
    <glyph glyph-name="inbox" unicode="&#xf01c;" horiz-adv-x="576" 
d="M567 221l-105 143q-6 10 -16.5 15t-21.5 5h-272q-11 0 -21.5 -5t-16.5 -15l-105 -143q-9 -13 -9 -29v-144q0 -20 14 -34t34 -14h480q20 0 34 14t14 34v144q0 16 -9 29zM140 345q4 7 12 7h272q8 0 12 -7l89 -121h-137l-32 -64h-136l-32 64h-137zM544 176v-128
q0 -7 -4.5 -11.5t-11.5 -4.5h-480q-7 0 -11.5 4.5t-4.5 11.5v128q0 7 4.5 11.5t11.5 4.5h120l32 -64h176l32 64h120q7 0 11.5 -4.5t4.5 -11.5z" />
    <glyph glyph-name="redo" unicode="&#xf01e;" 
d="M492 440h-10q-5 0 -8.5 -3.5t-3.5 -8.5v-111q-33 57 -90 90t-124.5 33t-124.5 -33.5t-90 -90.5t-33 -124.5t33.5 -124t90.5 -90t124 -33.5q47 0 90 17t76 47q4 3 4 8.5t-3 8.5l-7 7q-4 4 -8.5 4t-8.5 -3q-29 -26 -65.5 -40.5t-77.5 -14.5q-58 0 -107 28.5t-78 78
t-29 107.5t28.5 107t78 78t107.5 29q61 0 112 -31.5t78 -84.5h-114q-5 0 -8.5 -3.5t-3.5 -8.5v-10q0 -5 3.5 -8.5t8.5 -3.5h160q5 0 8.5 3.5t3.5 8.5v160q0 5 -3.5 8.5t-8.5 3.5z" />
    <glyph glyph-name="sync" unicode="&#xf021;" 
d="M492 440h-10q-5 0 -8.5 -3.5t-3.5 -8.5v-111q-33 56 -90 89.5t-123 33.5t-122 -31.5t-89.5 -85.5t-37.5 -118q0 -6 3.5 -9.5t8.5 -3.5h10q5 0 8.5 3.5t3.5 7.5q3 56 32.5 102.5t77.5 73.5t104 27q61 0 112 -31.5t78 -84.5h-114q-5 0 -8.5 -3.5t-3.5 -8.5v-10
q0 -5 3.5 -8.5t8.5 -3.5h160q5 0 8.5 3.5t3.5 8.5v160q0 5 -3.5 8.5t-8.5 3.5zM492 192h-10q-5 0 -8.5 -3.5t-3.5 -7.5q-3 -56 -32.5 -102.5t-77.5 -73.5t-104 -27q-61 0 -112 31.5t-78 84.5h114q5 0 8.5 3.5t3.5 8.5v10q0 5 -3.5 8.5t-8.5 3.5h-160q-5 0 -8.5 -3.5
t-3.5 -8.5v-160q0 -5 3.5 -8.5t8.5 -3.5h10q5 0 8.5 3.5t3.5 8.5v111q33 -56 90 -89.5t123 -33.5t122 31.5t89.5 85.5t37.5 118q0 6 -3.5 9.5t-8.5 3.5z" />
    <glyph glyph-name="lock" unicode="&#xf023;" horiz-adv-x="448" 
d="M400 224h-16v63q0 43 -21.5 80t-58 59t-80 22t-80.5 -21.5t-58.5 -58.5t-21.5 -80v-64h-16q-20 0 -34 -14t-14 -34v-192q0 -20 14 -34t34 -14h352q20 0 34 14t14 34v192q0 20 -14 34t-34 14zM96 288q0 35 17 64.5t46.5 46.5t64.5 17t64.5 -17t46.5 -46.5t17 -64.5v-64
h-256v64zM400 -32h-352q-7 0 -11.5 4.5t-4.5 11.5v192q0 7 4.5 11.5t11.5 4.5h352q7 0 11.5 -4.5t4.5 -11.5v-192q0 -7 -4.5 -11.5t-11.5 -4.5z" />
    <glyph glyph-name="headphones" unicode="&#xf025;" 
d="M256 416q-70 0 -128.5 -34.5t-93 -93t-34.5 -128.5v-51q0 -10 8 -14l24 -14v-1q0 -30 15 -56t41 -41t56 -15h24q10 0 17 7t7 17v176q0 10 -7 17t-17 7h-24q-37 0 -66 -21.5t-40 -55.5l-6 3v42q0 61 30 112.5t81.5 81.5t112.5 30t112.5 -30t81.5 -81.5t30 -112.5v-42
l-6 -3q-11 34 -40 55.5t-66 21.5h-24q-10 0 -17 -7t-7 -17v-176q0 -10 7 -17t17 -7h24q30 0 56 15t41 41t15 56v1l24 14q8 4 8 14v51q0 70 -34.5 128.5t-93 93t-128.5 34.5zM144 160h16v-160h-16q-33 0 -56.5 23.5t-23.5 56.5t23.5 56.5t56.5 23.5zM368 0h-16v160h16
q33 0 56.5 -23.5t23.5 -56.5t-23.5 -56.5t-56.5 -23.5z" />
    <glyph glyph-name="tag" unicode="&#xf02b;" 
d="M498 222l-212 212q-14 14 -34 14h-204q-20 0 -34 -14t-14 -34v-204q0 -20 14 -34l212 -212q14 -14 34 -14t34 14l204 204q14 14 14 34t-14 34zM475 177l-204 -204q-4 -5 -11 -5t-11 5l-212 212q-5 4 -5 11v204q0 7 4.5 11.5t11.5 4.5h204q7 0 11 -5l212 -212q5 -4 5 -11
t-5 -11zM144 324q8 0 14 -6t6 -14t-6 -14t-14 -6t-14 6t-6 14t6 14t14 6zM144 352q-20 0 -34 -14t-14 -34t14 -34t34 -14t34 14t14 34t-14 34t-34 14z" />
    <glyph glyph-name="tags" unicode="&#xf02c;" horiz-adv-x="640" 
d="M626 154l-204 -204q-14 -14 -34 -14t-34 14l-2 2l23 22l2 -1q4 -5 11 -5t11 5l204 204q5 4 5 11t-5 11l-212 212q-4 5 -11 5h-19l-32 32h51q20 0 34 -14l212 -212q14 -14 14 -34t-14 -34zM252 416h-204q-7 0 -11.5 -4.5t-4.5 -11.5v-204q0 -7 5 -11l212 -212q4 -5 11 -5
t11 5l204 204q5 4 5 11t-5 11l-212 212q-4 5 -11 5zM252 448q20 0 34 -14l212 -212q14 -14 14 -34t-14 -34l-204 -204q-14 -14 -34 -14t-34 14l-212 212q-14 14 -14 34v204q0 20 14 34t34 14h204zM144 324q-8 0 -14 -6t-6 -14t6 -14t14 -6t14 6t6 14t-6 14t-14 6zM144 352
q20 0 34 -14t14 -34t-14 -34t-34 -14t-34 14t-14 34t14 34t34 14z" />
    <glyph glyph-name="bookmark" unicode="&#xf02e;" horiz-adv-x="384" 
d="M336 448h-288q-20 0 -34 -14t-14 -34v-464l192 112l192 -112v464q0 20 -14 34t-34 14zM352 -8l-160 93l-160 -93v408q0 7 4.5 11.5t11.5 4.5h288q7 0 11.5 -4.5t4.5 -11.5v-408z" />
    <glyph glyph-name="print" unicode="&#xf02f;" 
d="M432 256h-16v83q0 13 -9 22l-78 78q-9 9 -22 9h-181q-12 0 -21 -9.5t-9 -22.5v-160h-16q-33 0 -56.5 -23.5t-23.5 -56.5v-96q0 -7 4.5 -11.5t11.5 -4.5h80v-112q0 -7 4.5 -11.5t11.5 -4.5h288q7 0 11.5 4.5t4.5 11.5v112h80q7 0 11.5 4.5t4.5 11.5v96q0 33 -23.5 56.5
t-56.5 23.5zM320 403l51 -51h-51v51zM128 416h160v-64q0 -13 9.5 -22.5t22.5 -9.5h64v-64h-256v160zM384 -32h-256v96h256v-96zM480 96h-448v80q0 20 14 34t34 14h352q20 0 34 -14t14 -34v-80zM400 184q-10 0 -17 -7t-7 -17t7 -17t17 -7t17 7t7 17t-7 17t-17 7z" />
    <glyph glyph-name="camera" unicode="&#xf030;" 
d="M324 384q6 0 8 -5l22 -59h110q7 0 11.5 -4.5t4.5 -11.5v-288q0 -7 -4.5 -11.5t-11.5 -4.5h-416q-7 0 -11.5 4.5t-4.5 11.5v288q0 7 4.5 11.5t11.5 4.5h110l20 54q2 4 6 7t9 3h131zM324 416h-131q-15 0 -27 -8.5t-18 -22.5l-12 -33h-88q-20 0 -34 -14t-14 -34v-288
q0 -20 14 -34t34 -14h416q20 0 34 14t14 34v288q0 20 -14 34t-34 14h-88l-14 38q-5 12 -15 19t-23 7zM256 40q-33 0 -60.5 16t-43.5 43.5t-16 60.5t16 60.5t43.5 43.5t60.5 16t60.5 -16t43.5 -43.5t16 -60.5t-16 -60.5t-43.5 -43.5t-60.5 -16zM256 248q-36 0 -62 -26
t-26 -62t26 -62t62 -26t62 26t26 62t-26 62t-62 26z" />
    <glyph glyph-name="video" unicode="&#xf03d;" horiz-adv-x="576" 
d="M544 352q-10 0 -18 -6l-110 -70v60q0 20 -15 34t-37 14h-312q-22 0 -37 -14t-15 -34v-288q0 -20 15 -34t37 -14h312q22 0 37 14t15 34v60l110 -70q8 -6 18 -6q13 0 22.5 9t9.5 23v257q0 13 -9.5 22t-22.5 9zM384 48q0 -7 -6 -11.5t-14 -4.5h-312q-8 0 -14 4.5t-6 11.5
v288q0 7 6 11.5t14 4.5h312q8 0 14 -4.5t6 -11.5v-288zM544 64l-1 1l-127 81v93l128 81v-256z" />
    <glyph glyph-name="image" unicode="&#xf03e;" 
d="M464 384h-416q-20 0 -34 -14t-14 -34v-288q0 -20 14 -34t34 -14h416q20 0 34 14t14 34v288q0 20 -14 34t-34 14zM480 48q0 -7 -4.5 -11.5t-11.5 -4.5h-416q-7 0 -11.5 4.5t-4.5 11.5v288q0 7 4.5 11.5t11.5 4.5h416q7 0 11.5 -4.5t4.5 -11.5v-288zM112 216
q23 0 39.5 16.5t16.5 39.5t-16.5 39.5t-39.5 16.5t-39.5 -16.5t-16.5 -39.5t16.5 -39.5t39.5 -16.5zM112 296q10 0 17 -7t7 -17t-7 -17t-17 -7t-17 7t-7 17t7 17t17 7zM319 273l-95 -95l-31 31q-7 7 -17 7t-17 -7l-88 -88q-7 -7 -7 -17v-28q0 -5 3.5 -8.5t8.5 -3.5h360
q5 0 8.5 3.5t3.5 8.5v92q0 10 -7 17l-88 88q-7 7 -17 7t-17 -7zM416 96h-320v5l80 80l48 -48l112 112l80 -80v-69z" />
    <glyph glyph-name="pencil" unicode="&#xf040;" 
d="M493 392l-37 37q-19 19 -45.5 19t-45.5 -19l-352 -352l-13 -114q-1 -12 7 -20t20 -7l114 13l352 352q19 19 19 45.5t-19 45.5zM398 251l-224 -224v35h-48v48h-35l224 224zM126 -21l-59 -6l-30 30l6 59l20 20h35v-48h48v-35zM471 324l-50 -50l-83 83l50 50q9 9 22.5 9
t22.5 -9l38 -38q9 -9 9 -22.5t-9 -22.5z" />
    <glyph glyph-name="map-marker" unicode="&#xf041;" horiz-adv-x="384" 
d="M192 448q-52 0 -96 -26t-70 -70t-26 -96q0 -32 8 -56.5t31 -60.5q16 -25 66 -97l67 -96q7 -10 20 -10t20 10l67 96q50 72 66 97q23 36 31 60.5t8 56.5q0 52 -26 96t-70 70t-96 26zM192 -26q-24 35 -62 89q-48 69 -63 91q-21 34 -28 54.5t-7 47.5q0 32 12 61t35 52t52 35
t61 12t61 -12t52 -35t35 -52t12 -61q0 -27 -7 -47.5t-28 -54.5q-15 -22 -63 -91z" />
    <glyph glyph-name="tint" unicode="&#xf043;" horiz-adv-x="352" 
d="M205 426q-3 10 -11 16t-18 6t-18 -5.5t-11 -16.5q-15 -50 -40 -95q-16 -27 -47 -72t-42 -68q-18 -38 -18 -77q0 -48 23.5 -89t64 -65t88.5 -24t88.5 24t64 65t23.5 89q0 40 -18 77q-11 23 -42 67.5t-46 71.5q-26 46 -41 96zM176 -32q-39 0 -72 19.5t-52.5 53t-19.5 73.5
q0 33 15 65q10 20 40 62q31 44 46 72q27 48 43 99q16 -51 43 -99q15 -28 46 -72v0q30 -42 40 -62q15 -32 15 -65q0 -40 -19.5 -73.5t-52.5 -53t-72 -19.5zM176 32q-33 0 -56.5 23.5t-23.5 56.5q0 7 -4.5 11.5t-11.5 4.5t-11.5 -4.5t-4.5 -11.5q0 -30 15 -56t41 -41t56 -15
q7 0 11.5 4.5t4.5 11.5t-4.5 11.5t-11.5 4.5z" />
    <glyph glyph-name="edit" unicode="&#xf044;" horiz-adv-x="576" 
d="M418 133l20 20q3 2 6.5 0.5t3.5 -5.5v-164q0 -20 -14 -34t-34 -14h-352q-20 0 -34 14t-14 34v352q0 20 14 34t34 14h292q4 0 5.5 -3.5t-1.5 -6.5l-19 -20q-2 -2 -5 -2h-272q-7 0 -11.5 -4.5t-4.5 -11.5v-352q0 -7 4.5 -11.5t11.5 -4.5h352q7 0 11.5 4.5t4.5 11.5v144
q0 3 2 5zM564 324l-313 -313l-100 -11q-10 -1 -17 6t-6 17l11 100l313 313q12 12 29.5 12t29.5 -12l53 -53q12 -12 12 -29.5t-12 -29.5zM470 275l-67 67l-233 -233l-8 -76l75 9zM541 361l-52 52q-3 3 -7.5 3t-7.5 -3l-48 -48l67 -67l48 48q3 3 3 7.5t-3 7.5z" />
    <glyph glyph-name="arrows" unicode="&#xf047;" 
d="M338 13l-74 -73q-3 -4 -8 -4t-8 4l-74 73q-3 4 -3 9t3 8l7 7q4 4 9 4t8 -4l41 -41h1v180h-180v-1l41 -41q4 -3 4 -8t-4 -9l-7 -7q-3 -3 -8 -3t-9 3l-73 74q-4 3 -4 8t4 8l73 74q4 3 9 3t8 -3l7 -7q4 -4 4 -9t-4 -8l-41 -41v-1h180v180h-1l-41 -41q-3 -4 -8 -4t-9 4l-7 7
q-3 3 -3 8t3 9l74 73q3 4 8 4t8 -4l74 -73q3 -4 3 -9t-3 -8l-7 -7q-4 -4 -9 -4t-8 4l-41 41h-1v-180h180v1l-41 41q-4 3 -4 8t4 9l7 7q3 3 8 3t9 -3l73 -74q4 -3 4 -8t-4 -8l-73 -74q-4 -3 -9 -3t-8 3l-7 7q-4 4 -4 9t4 8l41 41v1h-180v-180h1l41 41q3 4 8 4t9 -4l7 -7
q3 -3 3 -8t-3 -9z" />
    <glyph glyph-name="step-backward" unicode="&#xf048;" horiz-adv-x="448" 
d="M76 -31h8q5 0 8.5 3.5t3.5 8.5v190l3 -3l233 -191q9 -9 21.5 -8t21.5 10t9 22v384q0 13 -9 22t-21.5 10t-21.5 -7l-232 -193l-4 -3v191q0 5 -3.5 8.5t-8.5 3.5h-8q-5 0 -8.5 -3.5t-3.5 -8.5v-424q0 -5 3.5 -8.5t8.5 -3.5zM117 192l235 193v0v-384z" />
    <glyph glyph-name="fast-backward" unicode="&#xf049;" 
d="M12 1h8q5 0 8.5 3.5t3.5 8.5v158l3 -3l201 -160q9 -8 21.5 -7t21.5 10t9 22v118l172 -143q9 -8 21.5 -7t21.5 10t9 22v320q0 13 -9 22t-21.5 10t-21.5 -7l-172 -144v119q0 13 -9 22t-21.5 10t-21.5 -8l-201 -160l-3 -3v159q0 5 -3.5 8.5t-8.5 3.5h-8q-5 0 -8.5 -3.5
t-3.5 -8.5v-360q0 -5 3.5 -8.5t8.5 -3.5zM293 192v1l187 160v-320zM61 193l195 160v0v-320l-195 159v1z" />
    <glyph glyph-name="backward" unicode="&#xf04a;" 
d="M268 167l192 -159q9 -9 21.5 -8t21.5 10t9 22v320q0 13 -9 22t-21.5 10t-21.5 -7l-192 -161q-12 -10 -12 -25t12 -24zM288 191l192 161v-320zM12 167l192 -159q9 -9 21.5 -8t21.5 10t9 22v320q0 13 -9 22t-21.5 10t-21.5 -7l-192 -161q-12 -10 -12 -25t11 -24h1zM32 191
l192 161v-320z" />
    <glyph glyph-name="play" unicode="&#xf04b;" horiz-adv-x="448" 
d="M424 233l-352 208q-14 9 -31 6.5t-29 -15t-12 -32.5v-416q0 -18 11.5 -31t28.5 -16t32 6l352 208q16 9 21.5 25t0 32t-21.5 25zM408 178l-352 -208q-8 -4 -16 0.5t-8 13.5v416q0 11 8.5 14.5t15.5 -0.5l352 -208q8 -5 8 -14t-8 -14z" />
    <glyph glyph-name="pause" unicode="&#xf04c;" horiz-adv-x="448" 
d="M48 -31h96q20 0 34 14t14 34v352q0 20 -14 34t-34 14h-96q-20 0 -34 -14t-14 -34v-352q0 -20 14 -34t34 -14zM32 369q0 7 4.5 11.5t11.5 4.5h96q7 0 11.5 -4.5t4.5 -11.5v-352q0 -7 -4.5 -11.5t-11.5 -4.5h-96q-7 0 -11.5 4.5t-4.5 11.5v352zM304 -31h96q20 0 34 14
t14 34v352q0 20 -14 34t-34 14h-96q-20 0 -34 -14t-14 -34v-352q0 -20 14 -34t34 -14zM288 369q0 7 4.5 11.5t11.5 4.5h96q7 0 11.5 -4.5t4.5 -11.5v-352q0 -7 -4.5 -11.5t-11.5 -4.5h-96q-7 0 -11.5 4.5t-4.5 11.5v352z" />
    <glyph glyph-name="forward" unicode="&#xf04e;" 
d="M245 217l-192 160q-10 8 -22.5 7t-21.5 -10t-9 -22v-320q0 -13 9 -22t21.5 -10t22.5 7l192 161q11 10 11 25t-12 24h1zM224 193l-192 -161v320zM501 217l-192 160q-10 8 -22.5 7t-21.5 -10t-9 -22v-320q0 -13 9 -22t21.5 -10t21.5 7l193 161q11 10 11 25t-12 24h1z
M480 193l-192 -161v320z" />
    <glyph glyph-name="fast-forward" unicode="&#xf050;" 
d="M500 385h-8q-5 0 -8.5 -3.5t-3.5 -8.5v-158l-3 3l-200 160q-10 8 -22.5 7t-21.5 -10t-9 -22v-118l-171 143q-10 8 -22.5 7t-21.5 -10t-9 -22v-320q0 -13 9 -22t21.5 -10t22.5 7l171 144v-119q0 -13 9 -22t21.5 -10t21.5 7l201 161l3 3v-159q0 -5 3.5 -8.5t8.5 -3.5h8
q5 0 8.5 3.5t3.5 8.5v360q0 5 -3.5 8.5t-8.5 3.5zM220 194h-1l-187 -161v320zM451 193l-195 -160v0v320l195 -159v-1z" />
    <glyph glyph-name="step-forward" unicode="&#xf051;" horiz-adv-x="448" 
d="M372 417h-8q-5 0 -8.5 -3.5t-3.5 -8.5v-190l-4 3l-231 192q-10 8 -22.5 7t-21.5 -10t-9 -22v-384q0 -13 9 -22t21.5 -10t22.5 7l232 193l3 3v-191q0 -5 3.5 -8.5t8.5 -3.5h8q5 0 8.5 3.5t3.5 8.5v424q0 5 -3.5 8.5t-8.5 3.5zM332 194l-236 -193v0v384z" />
    <glyph glyph-name="eject" unicode="&#xf052;" horiz-adv-x="448" 
d="M435 208l-176 192q-14 16 -35 16t-35 -16l-176 -192q-14 -14 -13 -33.5t14.5 -33t33.5 -13.5h352q20 0 33.5 13.5t14.5 33t-13 33.5zM400 160h-352q-10 0 -14.5 9.5t2.5 17.5l176 192q5 5 12 5t12 -5l176 -192q7 -8 2.5 -17.5t-14.5 -9.5zM448 48v-32q0 -20 -14 -34
t-34 -14h-352q-20 0 -34 14t-14 34v32q0 20 14 34t34 14h352q20 0 34 -14t14 -34zM400 64h-352q-7 0 -11.5 -4.5t-4.5 -11.5v-32q0 -7 4.5 -11.5t11.5 -4.5h352q7 0 11.5 4.5t4.5 11.5v32q0 7 -4.5 11.5t-11.5 4.5z" />
    <glyph glyph-name="chevron-left" unicode="&#xf053;" horiz-adv-x="256" 
d="M238 -28l8 8q3 3 3 8t-3 9l-196 195l196 195q3 4 3 9t-3 8l-8 8q-3 3 -8 3t-8 -3l-212 -212q-3 -3 -3 -8t3 -8l212 -212q3 -3 8 -3t8 3z" />
    <glyph glyph-name="chevron-right" unicode="&#xf054;" horiz-adv-x="256" 
d="M18 412l-8 -8q-3 -3 -3 -8t3 -9l196 -195l-196 -195q-3 -4 -3 -9t3 -8l8 -8q3 -3 8 -3t8 3l212 212q3 3 3 8t-3 8l-212 212q-3 3 -8 3t-8 -3z" />
    <glyph glyph-name="plus-circle" unicode="&#xf055;" 
d="M384 198v-12q0 -5 -3.5 -8.5t-8.5 -3.5h-98v-98q0 -5 -3.5 -8.5t-8.5 -3.5h-12q-5 0 -8.5 3.5t-3.5 8.5v98h-98q-5 0 -8.5 3.5t-3.5 8.5v12q0 5 3.5 8.5t8.5 3.5h98v98q0 5 3.5 8.5t8.5 3.5h12q5 0 8.5 -3.5t3.5 -8.5v-98h98q5 0 8.5 -3.5t3.5 -8.5zM504 192
q0 -67 -33.5 -124t-90.5 -90.5t-124 -33.5t-124 33.5t-90.5 90.5t-33.5 124t33.5 124t90.5 90.5t124 33.5t124 -33.5t90.5 -90.5t33.5 -124zM472 192q0 59 -29 108.5t-79 78.5t-108.5 29t-108 -29t-78.5 -79t-29 -108.5t29 -108t79 -78.5t108.5 -29t108 29t78.5 79t29 108z
" />
    <glyph glyph-name="minus-circle" unicode="&#xf056;" 
d="M140 174q-5 0 -8.5 3.5t-3.5 8.5v12q0 5 3.5 8.5t8.5 3.5h232q5 0 8.5 -3.5t3.5 -8.5v-12q0 -5 -3.5 -8.5t-8.5 -3.5h-232zM504 192q0 -67 -33.5 -124t-90.5 -90.5t-124 -33.5t-124 33.5t-90.5 90.5t-33.5 124t33.5 124t90.5 90.5t124 33.5t124 -33.5t90.5 -90.5
t33.5 -124zM472 192q0 59 -29 108.5t-79 78.5t-108.5 29t-108 -29t-78.5 -79t-29 -108.5t29 -108t79 -78.5t108.5 -29t108 29t78.5 79t29 108z" />
    <glyph glyph-name="times-circle" unicode="&#xf057;" 
d="M256 440q-67 0 -124 -33.5t-90.5 -90.5t-33.5 -124t33.5 -124t90.5 -90.5t124 -33.5t124 33.5t90.5 90.5t33.5 124t-33.5 124t-90.5 90.5t-124 33.5zM256 -24q-58 0 -108 29t-79 78.5t-29 108t29 108.5t78.5 79t108 29t108.5 -29t79 -78.5t29 -108t-29 -108.5t-78.5 -79
t-108.5 -29zM351 261l-69 -69l69 -69q3 -4 3 -9t-3 -8l-9 -9q-3 -3 -8 -3t-9 3l-69 70l-69 -70q-4 -3 -9 -3t-8 3l-9 9q-3 3 -3 8t3 9l70 69l-70 69q-3 4 -3 9t3 8l9 9q3 3 8 3t9 -3l69 -69l69 69q4 3 9 3t8 -3l9 -9q3 -3 3 -8t-3 -9z" />
    <glyph glyph-name="check-circle" unicode="&#xf058;" 
d="M256 440q-67 0 -124 -33.5t-90.5 -90.5t-33.5 -124t33.5 -124t90.5 -90.5t124 -33.5t124 33.5t90.5 90.5t33.5 124t-33.5 124t-90.5 90.5t-124 33.5zM256 -24q-58 0 -108 29t-79 78.5t-29 108t29 108.5t78.5 79t108 29t108.5 -29t79 -78.5t29 -108t-29 -108.5t-78.5 -79
t-108.5 -29zM398 251l-181 -179q-3 -4 -8 -4t-9 4l-86 87q-3 3 -3 8t3 9l9 8q3 3 8 3t9 -3l69 -70l163 163q4 3 9 3t8 -4l9 -8q3 -4 3 -9t-3 -8z" />
    <glyph glyph-name="question-circle" unicode="&#xf059;" 
d="M256 108q-12 0 -20 -8t-8 -20t8 -20t20 -8t20 8t8 20t-8 20t-20 8zM264 132h-16q-5 0 -8.5 3.5t-3.5 8.5v0q0 26 14 44q9 10 31 24q17 11 22 17q10 10 10 23q0 16 -14 27q-15 13 -43 13q-21 0 -34.5 -7t-25.5 -22q-2 -3 -7 -4t-9 2l-13 9q-4 3 -5 8t2 9q18 22 37 33
q23 12 55 12q41 0 69 -22t28 -58q0 -25 -14 -42q-9 -11 -31 -25q-17 -11 -23 -17q-9 -11 -9 -24v0q0 -5 -3.5 -8.5t-8.5 -3.5zM256 408q58 0 108 -29t79 -78.5t29 -108.5t-29 -108.5t-78.5 -78.5t-108.5 -29t-108.5 29t-78.5 78.5t-29 108.5t29 108.5t78.5 78.5t108.5 29z
M256 440q-67 0 -124 -33.5t-90.5 -90.5t-33.5 -124t33.5 -124t90.5 -90.5t124 -33.5t124 33.5t90.5 90.5t33.5 124t-33.5 124t-90.5 90.5t-124 33.5z" />
    <glyph glyph-name="info-circle" unicode="&#xf05a;" 
d="M256 408q58 0 108 -29t79 -78.5t29 -108.5t-29 -108.5t-78.5 -78.5t-108.5 -29t-108.5 29t-78.5 78.5t-29 108.5t29 108.5t78.5 78.5t108.5 29zM256 440q-67 0 -124 -33.5t-90.5 -90.5t-33.5 -124t33.5 -124t90.5 -90.5t124 -33.5t124 33.5t90.5 90.5t33.5 124t-33.5 124
t-90.5 90.5t-124 33.5zM220 96h12v120h-12q-5 0 -8.5 3.5t-3.5 8.5v8q0 5 3.5 8.5t8.5 3.5h48q5 0 8.5 -3.5t3.5 -8.5v-140h12q5 0 8.5 -3.5t3.5 -8.5v-8q0 -5 -3.5 -8.5t-8.5 -3.5h-72q-5 0 -8.5 3.5t-3.5 8.5v8q0 5 3.5 8.5t8.5 3.5zM256 336q-13 0 -22.5 -9.5t-9.5 -22.5
t9.5 -22.5t22.5 -9.5t22.5 9.5t9.5 22.5t-9.5 22.5t-22.5 9.5z" />
    <glyph glyph-name="crosshairs" unicode="&#xf05b;" 
d="M506 208h-35q-3 53 -30.5 97t-71.5 71.5t-97 30.5v35q0 2 -2 4t-4 2h-20q-2 0 -4 -2t-2 -4v-35q-53 -3 -97 -30.5t-71.5 -71.5t-30.5 -97h-35q-2 0 -4 -2t-2 -4v-20q0 -2 2 -4t4 -2h35q3 -53 30.5 -97t71.5 -71.5t97 -30.5v-35q0 -2 2 -4t4 -2h20q2 0 4 2t2 4v35
q53 3 97 30.5t71.5 71.5t30.5 97h35q2 0 4 2t2 4v20q0 2 -2 4t-4 2zM272 9v65q0 2 -2 4t-4 2h-20q-2 0 -4 -2t-2 -4v-65q-44 3 -81 26t-60 60t-26 81h65q2 0 4 2t2 4v20q0 2 -2 4t-4 2h-65q3 44 26 81t60 60t81 26v-65q0 -2 2 -4t4 -2h20q2 0 4 2t2 4v65q44 -3 81 -26
t60 -60t26 -81h-65q-2 0 -4 -2t-2 -4v-20q0 -2 2 -4t4 -2h65q-3 -44 -26 -81t-60 -60t-81 -26zM280 192q0 -10 -7 -17t-17 -7t-17 7t-7 17t7 17t17 7t17 -7t7 -17z" />
    <glyph glyph-name="ban" unicode="&#xf05e;" 
d="M256 440q-67 0 -124 -33.5t-90.5 -90.5t-33.5 -124t33.5 -124t90.5 -90.5t124 -33.5t124 33.5t90.5 90.5t33.5 124t-33.5 124t-90.5 90.5t-124 33.5zM103 39q-39 40 -54.5 92.5t-4 106t47.5 95.5l305 -305q-42 -36 -95.5 -47.5t-106 4t-92.5 54.5zM420 51l-305 305
q42 36 95.5 47.5t106 -4t92 -55t55 -92t4 -106t-47.5 -95.5z" />
    <glyph glyph-name="arrow-left" unicode="&#xf060;" horiz-adv-x="448" 
d="M232 -28l7 8q3 3 3 8t-3 9l-179 178h376q5 0 8.5 3.5t3.5 8.5v10q0 5 -3.5 8.5t-8.5 3.5h-376l179 178q3 4 3 9t-3 8l-7 8q-4 3 -9 3t-8 -3l-211 -212q-4 -3 -4 -8t4 -8l211 -212q3 -3 8 -3t9 3z" />
    <glyph glyph-name="arrow-right" unicode="&#xf061;" horiz-adv-x="448" 
d="M216 412l-7 -8q-3 -3 -3 -8t3 -9l179 -178h-376q-5 0 -8.5 -3.5t-3.5 -8.5v-10q0 -5 3.5 -8.5t8.5 -3.5h376l-179 -178q-3 -4 -3 -9t3 -8l7 -8q4 -3 9 -3t8 3l211 212q4 3 4 8t-4 8l-211 212q-3 3 -8 3t-9 -3z" />
    <glyph glyph-name="arrow-up" unicode="&#xf062;" horiz-adv-x="448" 
d="M4 184l8 -7q3 -3 8 -3t9 3l178 179v-376q0 -5 3.5 -8.5t8.5 -3.5h10q5 0 8.5 3.5t3.5 8.5v376l178 -179q4 -3 9 -3t8 3l8 7q3 4 3 9t-3 8l-212 211q-3 4 -8 4t-8 -4l-212 -211q-3 -3 -3 -8t3 -9z" />
    <glyph glyph-name="arrow-down" unicode="&#xf063;" horiz-adv-x="448" 
d="M444 200l-8 7q-3 3 -8 3t-9 -3l-178 -179v376q0 5 -3.5 8.5t-8.5 3.5h-10q-5 0 -8.5 -3.5t-3.5 -8.5v-376l-178 179q-4 3 -9 3t-8 -3l-8 -7q-3 -4 -3 -9t3 -9l211 -211q4 -3 9 -3t8 3l211 212q4 3 4 8t-4 8z" />
    <glyph glyph-name="share" unicode="&#xf064;" horiz-adv-x="576" 
d="M565 252l-176 184q-12 12 -28.5 12t-28.5 -11.5t-12 -28.5v-88q-95 -1 -156 -16q-78 -18 -118 -59q-46 -47 -46 -128q0 -63 32 -114q22 -35 57 -61q12 -8 25.5 -5t21 14.5t3.5 25.5q-19 65 -5 97t62 44q38 9 124 10v-88q0 -17 12 -28.5t28.5 -11.5t28.5 12l176 184
q11 12 11 28t-11 28zM542 218l-176 -184q-4 -3 -9 -1t-5 7v120q-103 0 -151 -9q-67 -13 -91 -52q-26 -44 -2 -131q-32 24 -51 57q-25 41 -25 92q0 75 48 115q41 35 119 47q55 9 153 9v120q0 5 5 7t9 -1l176 -184q2 -3 2 -6t-2 -6z" />
    <glyph glyph-name="expand" unicode="&#xf065;" horiz-adv-x="448" 
d="M0 268v124q0 10 7 17t17 7h124q5 0 8.5 -3.5t3.5 -8.5v-8q0 -5 -3.5 -8.5t-8.5 -3.5h-116v-116q0 -5 -3.5 -8.5t-8.5 -3.5h-8q-5 0 -8.5 3.5t-3.5 8.5zM300 416h124q10 0 17 -7t7 -17v-124q0 -5 -3.5 -8.5t-8.5 -3.5h-8q-5 0 -8.5 3.5t-3.5 8.5v116h-116q-5 0 -8.5 3.5
t-3.5 8.5v8q0 5 3.5 8.5t8.5 3.5zM448 116v-124q0 -10 -7 -17t-17 -7h-124q-5 0 -8.5 3.5t-3.5 8.5v8q0 5 3.5 8.5t8.5 3.5h116v116q0 5 3.5 8.5t8.5 3.5h8q5 0 8.5 -3.5t3.5 -8.5zM148 -32h-124q-10 0 -17 7t-7 17v124q0 5 3.5 8.5t8.5 3.5h8q5 0 8.5 -3.5t3.5 -8.5v-116
h116q5 0 8.5 -3.5t3.5 -8.5v-8q0 -5 -3.5 -8.5t-8.5 -3.5z" />
    <glyph glyph-name="compress" unicode="&#xf066;" horiz-adv-x="448" 
d="M436 256h-124q-10 0 -17 7t-7 17v124q0 5 3.5 8.5t8.5 3.5h8q5 0 8.5 -3.5t3.5 -8.5v-116h116q5 0 8.5 -3.5t3.5 -8.5v-8q0 -5 -3.5 -8.5t-8.5 -3.5zM160 280v124q0 5 -3.5 8.5t-8.5 3.5h-8q-5 0 -8.5 -3.5t-3.5 -8.5v-116h-116q-5 0 -8.5 -3.5t-3.5 -8.5v-8
q0 -5 3.5 -8.5t8.5 -3.5h124q10 0 17 7t7 17zM160 -20v124q0 10 -7 17t-17 7h-124q-5 0 -8.5 -3.5t-3.5 -8.5v-8q0 -5 3.5 -8.5t8.5 -3.5h116v-116q0 -5 3.5 -8.5t8.5 -3.5h8q5 0 8.5 3.5t3.5 8.5zM320 -20v116h116q5 0 8.5 3.5t3.5 8.5v8q0 5 -3.5 8.5t-8.5 3.5h-124
q-10 0 -17 -7t-7 -17v-124q0 -5 3.5 -8.5t8.5 -3.5h8q5 0 8.5 3.5t3.5 8.5z" />
    <glyph glyph-name="plus" unicode="&#xf067;" horiz-adv-x="384" 
d="M376 216h-160v160q0 3 -2.5 5.5t-5.5 2.5h-32q-3 0 -5.5 -2.5t-2.5 -5.5v-160h-160q-3 0 -5.5 -2.5t-2.5 -5.5v-32q0 -3 2.5 -5.5t5.5 -2.5h160v-160q0 -3 2.5 -5.5t5.5 -2.5h32q3 0 5.5 2.5t2.5 5.5v160h160q3 0 5.5 2.5t2.5 5.5v32q0 3 -2.5 5.5t-5.5 2.5z" />
    <glyph glyph-name="minus" unicode="&#xf068;" horiz-adv-x="384" 
d="M376 216h-368q-3 0 -5.5 -2.5t-2.5 -5.5v-32q0 -3 2.5 -5.5t5.5 -2.5h368q3 0 5.5 2.5t2.5 5.5v32q0 3 -2.5 5.5t-5.5 2.5z" />
    <glyph glyph-name="asterisk" unicode="&#xf069;" 
d="M475 84l-187 108l187 108q5 3 6 7.5t-1 9.5l-4 6q-3 5 -7.5 6t-9.5 -1l-187 -108v216q0 5 -3.5 8.5t-8.5 3.5h-8q-5 0 -8.5 -3.5t-3.5 -8.5v-216l-187 108q-5 2 -9.5 1t-7.5 -6l-4 -6q-2 -5 -1 -9.5t6 -7.5l187 -108l-187 -108q-5 -3 -6 -7.5t1 -9.5l4 -6q3 -5 7.5 -6
t9.5 1l187 108v-216q0 -5 3.5 -8.5t8.5 -3.5h8q5 0 8.5 3.5t3.5 8.5v216l187 -108q5 -2 9.5 -1t7.5 6l4 6q2 5 1 9.5t-6 7.5z" />
    <glyph glyph-name="exclamation-circle" unicode="&#xf06a;" 
d="M256 408q58 0 108 -29t79 -78.5t29 -108.5t-29 -108.5t-78.5 -78.5t-108.5 -29t-108.5 29t-78.5 78.5t-29 108.5t29 108.5t78.5 78.5t108.5 29zM256 440q-67 0 -124 -33.5t-90.5 -90.5t-33.5 -124t33.5 -124t90.5 -90.5t124 -33.5t124 33.5t90.5 90.5t33.5 124t-33.5 124
t-90.5 90.5t-124 33.5zM245 320h22q6 0 9.5 -3.5t2.5 -8.5l-7 -168q0 -5 -3.5 -8.5t-8.5 -3.5h-8q-5 0 -8.5 3.5t-3.5 7.5l-7 169q-1 5 2.5 8.5t9.5 3.5zM256 108q-12 0 -20 -8t-8 -20t8 -20t20 -8t20 8t8 20t-8 20t-20 8z" />
    <glyph glyph-name="calendar-alt" unicode="&#xf073;" horiz-adv-x="448" 
d="M400 384h-48v56q0 3 -2.5 5.5t-5.5 2.5h-16q-3 0 -5.5 -2.5t-2.5 -5.5v-56h-192v56q0 3 -2.5 5.5t-5.5 2.5h-16q-3 0 -5.5 -2.5t-2.5 -5.5v-56h-48q-20 0 -34 -14t-14 -34v-352q0 -20 14 -34t34 -14h352q20 0 34 14t14 34v352q0 20 -14 34t-34 14zM139 -32h-91
q-7 0 -11.5 4.5t-4.5 11.5v59h107v-75zM139 75h-107v74h107v-74zM32 181v75h107v-75h-107zM277 -32h-106v75h106v-75zM277 75h-106v74h106v-74zM171 181v75h106v-75h-106zM416 -16q0 -7 -4.5 -11.5t-11.5 -4.5h-91v75h107v-59zM416 75h-107v74h107v-74zM416 181h-107v75h107
v-75zM416 288h-384v48q0 7 4.5 11.5t11.5 4.5h352q7 0 11.5 -4.5t4.5 -11.5v-48z" />
    <glyph glyph-name="comment" unicode="&#xf075;" 
d="M256 384q61 0 112.5 -23.5t81.5 -64t30 -88.5t-30 -88.5t-81.5 -64t-112.5 -23.5q-43 0 -83 13l-15 5l-13 -10q-49 -34 -103 -39q28 35 41 69l7 19l-14 15q-44 47 -44 104q0 48 30 88.5t81.5 64t112.5 23.5zM256 416q-70 0 -128.5 -28t-93 -75.5t-34.5 -104.5
q0 -70 53 -126q-9 -25 -29 -52q-13 -18 -17.5 -22.5t-6 -11.5t1.5 -13.5t9 -10.5t13 -4q74 0 139 46q46 -14 93 -14q70 0 128.5 28t93 75.5t34.5 104.5t-34.5 104.5t-93 75.5t-128.5 28z" />
    <glyph glyph-name="chevron-up" unicode="&#xf077;" horiz-adv-x="448" 
d="M4 82l8 -8q3 -3 8 -3t9 3l195 196l195 -196q4 -3 9 -3t8 3l8 8q3 3 3 8t-3 8l-212 212q-3 3 -8 3t-8 -3l-212 -212q-3 -3 -3 -8t3 -8z" />
    <glyph glyph-name="chevron-down" unicode="&#xf078;" horiz-adv-x="448" 
d="M444 285l-8 8q-3 3 -8 3t-9 -3l-195 -196l-195 196q-4 3 -9 3t-8 -3l-8 -8q-3 -3 -3 -8t3 -9l211 -211q4 -3 9 -3t8 3l211 211q4 4 4 9t-4 8h1z" />
    <glyph glyph-name="retweet" unicode="&#xf079;" horiz-adv-x="640" 
d="M635 84l-99 -98q-3 -4 -8 -4t-8 4l-99 98q-3 4 -3 9t3 8l6 6q3 3 8 3t9 -3l68 -68v281h-252q-5 0 -8 4l-8 8q-6 5 -3 12.5t11 7.5h268q10 0 17 -7t7 -17v-289l68 68q4 3 9 3t8 -3l6 -6q3 -3 3 -8t-3 -9zM388 60q-3 4 -8 4h-252v281l68 -68q4 -3 9 -3t8 3l6 6q3 3 3 8
t-3 9l-99 98q-3 4 -8 4t-8 -4l-99 -98q-3 -4 -3 -9t3 -8l6 -6q3 -3 8 -3t9 3l68 68v-289q0 -10 7 -17t17 -7h268q8 0 11 7.5t-3 12.5z" />
    <glyph glyph-name="shopping-cart" unicode="&#xf07a;" horiz-adv-x="576" 
d="M552 384h-423l-8 44q-2 9 -8.5 14.5t-15.5 5.5h-85q-5 0 -8.5 -3.5t-3.5 -8.5v-8q0 -5 3.5 -8.5t8.5 -3.5h79l70 -373q-17 -18 -17 -44t18.5 -44.5t45.5 -18.5t45.5 18.5t18.5 45.5q0 17 -9 32h146q-9 -15 -9 -32q0 -27 18.5 -45.5t45.5 -18.5t45.5 18.5t18.5 45.5
t-19 46q-2 8 -8.5 13t-15.5 5h-296l-12 64h332q8 0 14.5 5.5t8.5 13.5l43 208q3 11 -4.5 20t-18.5 9zM240 0q0 -13 -9.5 -22.5t-22.5 -9.5t-22.5 9.5t-9.5 22.5t9.5 22.5t22.5 9.5t22.5 -9.5t9.5 -22.5zM464 -32q-13 0 -22.5 9.5t-9.5 22.5t9.5 22.5t22.5 9.5t22.5 -9.5
t9.5 -22.5t-9.5 -22.5t-22.5 -9.5zM502 160h-331l-36 192h407z" />
    <glyph glyph-name="folder" unicode="&#xf07b;" 
d="M195 352l54 -55q10 -9 23 -9h192q7 0 11.5 -4.5t4.5 -11.5v-224q0 -7 -4.5 -11.5t-11.5 -4.5h-416q-7 0 -11.5 4.5t-4.5 11.5v288q0 7 4.5 11.5t11.5 4.5h147zM48 384q-20 0 -34 -14t-14 -34v-288q0 -20 14 -34t34 -14h416q20 0 34 14t14 34v224q0 20 -14 34t-34 14h-192
l-55 55q-9 9 -22 9h-147z" />
    <glyph glyph-name="folder-open" unicode="&#xf07c;" horiz-adv-x="576" 
d="M528 224h-48v48q0 20 -14 34t-34 14h-160l-64 64h-160q-20 0 -34 -14t-14 -34v-288q0 -20 14 -34t34 -14h385q21 0 39.5 10.5t29.5 28.5l67 112q9 16 6 33t-16 28.5t-31 11.5zM48 352h147l64 -64h173q7 0 11.5 -4.5t4.5 -11.5v-48h-277q-21 0 -39.5 -10.5t-28.5 -28.5
l-71 -117v268q0 7 4.5 11.5t11.5 4.5zM542 168l-68 -113q-6 -11 -17 -17t-24 -6h-388l82 137q6 11 17 17t24 6h360q9 0 13.5 -8t0.5 -16z" />
    <glyph glyph-name="arrows-v" unicode="&#xf07d;" horiz-adv-x="192" 
d="M181 48q-3 4 -8 4t-9 -4l-51 -52v392l51 -52q4 -4 9 -4t8 4l7 7q4 4 4 8.5t-4 8.5l-84 84q-3 4 -8 4t-8 -4l-84 -84q-4 -4 -4 -8.5t4 -8.5l7 -7q3 -4 8 -4t9 4l51 52v-392l-51 52q-4 4 -9 4t-8 -4l-7 -7q-4 -4 -4 -8.5t4 -8.5l84 -84q3 -4 8 -4t8 4l84 84q4 4 4 8.5
t-4 8.5z" />
    <glyph glyph-name="arrows-h" unicode="&#xf07e;" 
d="M400 277q-4 -3 -4 -8t4 -9l52 -51h-392l52 51q4 4 4 9t-4 8l-7 7q-4 4 -8.5 4t-8.5 -4l-84 -84q-4 -3 -4 -8t4 -8l84 -84q4 -4 8.5 -4t8.5 4l7 7q4 3 4 8t-4 9l-52 51h392l-52 -51q-4 -4 -4 -9t4 -8l7 -7q4 -4 8.5 -4t8.5 4l84 84q4 3 4 8t-4 8l-84 84q-4 4 -8.5 4
t-8.5 -4z" />
    <glyph glyph-name="camera-retro" unicode="&#xf083;" 
d="M32 390v20q0 2 2 4t4 2h116q2 0 4 -2t2 -4v-20q0 -2 -2 -4t-4 -2h-116q-2 0 -4 2t-2 4zM376 160q0 33 -16 60.5t-43.5 43.5t-60.5 16t-60.5 -16t-43.5 -43.5t-16 -60.5t16 -60.5t43.5 -43.5t60.5 -16t60.5 16t43.5 43.5t16 60.5zM344 160q0 -36 -26 -62t-62 -26t-62 26
t-26 62t26 62t62 26t62 -26t26 -62zM224 160q0 13 9.5 22.5t22.5 9.5q7 0 11.5 4.5t4.5 11.5t-4.5 11.5t-11.5 4.5q-26 0 -45 -19t-19 -45q0 -7 4.5 -11.5t11.5 -4.5t11.5 4.5t4.5 11.5zM512 368v-352q0 -20 -14 -34t-34 -14h-416q-20 0 -34 14t-14 34v288q0 20 14 34t34 14
h136l34 45q14 19 38 19h208q20 0 34 -14t14 -34zM224 352h240q8 0 16 -3v19q0 7 -4.5 11.5t-11.5 4.5h-208q-8 0 -13 -6zM480 304q0 7 -4.5 11.5t-11.5 4.5h-416q-7 0 -11.5 -4.5t-4.5 -11.5v-288q0 -7 4.5 -11.5t11.5 -4.5h416q7 0 11.5 4.5t4.5 11.5v288z" />
    <glyph glyph-name="key" unicode="&#xf084;" 
d="M336 416q39 0 72 -19.5t52.5 -52.5t19.5 -72t-19.5 -72t-52.5 -52.5t-72 -19.5q-28 0 -54 10l-42 -42h-48v-64h-64v-64h-96v80l170 170q-10 26 -10 54q0 39 19.5 72t52.5 52.5t72 19.5zM336 448q-48 0 -88.5 -23.5t-64 -64t-23.5 -88.5q0 -23 6 -45l-159 -159
q-7 -7 -7 -17v-91q0 -10 7 -17t17 -7h112q10 0 17 7t7 17v40h40q10 0 17 7t7 17v40h19q10 0 17 7l31 31q22 -6 45 -6q48 0 88.5 23.5t64 64t23.5 88.5t-23.5 88.5t-64 64t-88.5 23.5zM384 340q8 0 14 -6t6 -14t-6 -14t-14 -6t-14 6t-6 14t6 14t14 6zM384 368q-20 0 -34 -14
t-14 -34t14 -34t34 -14t34 14t14 34t-14 34t-34 14z" />
    <glyph glyph-name="cogs" unicode="&#xf085;" horiz-adv-x="640" 
d="M539 252l-3 4q-6 -1 -12 0l-3 -4q-4 -7 -11.5 -10t-15.5 -1q-20 7 -34 19q-7 5 -8.5 13.5t2.5 16.5l3 4q-4 5 -6 11h-9q-9 0 -15.5 5.5t-8.5 13.5q-4 20 0 39q2 8 8.5 13.5t15.5 5.5h9q2 6 6 11l-3 5q-4 7 -2.5 15.5t7.5 14.5q15 12 34 19q8 3 16 0t12 -11l3 -4h12l3 4
q4 8 12 11t16 0q19 -6 34 -19q6 -6 7.5 -14.5t-2.5 -16.5l-3 -4q4 -5 6 -11h6q8 0 14.5 -5.5t8.5 -13.5q4 -19 0 -39q-2 -8 -8.5 -13.5t-15.5 -5.5h-5q-2 -6 -6 -11l3 -4q4 -8 2.5 -16.5t-8.5 -14.5q-14 -11 -34 -18q-8 -2 -15.5 1t-11.5 10zM551 286l10 -18q10 4 19 11
l-10 18l6 7q7 9 11 19l3 10h21q2 11 0 21h-21l-3 10q-4 10 -11 19l-6 7l10 19q-8 6 -19 10l-10 -18l-10 2q-11 2 -22 0l-10 -2l-10 18q-10 -4 -19 -10l11 -19l-7 -7q-7 -9 -11 -19l-3 -10h-21q-2 -10 0 -21h21l3 -9q4 -11 11 -20l7 -7l-11 -18q8 -7 19 -11l10 18l10 -2
q11 -2 22 0zM145 -6v31q-19 8 -36 21l-28 -16q-7 -4 -15.5 -2.5t-13.5 7.5q-19 20 -30.5 40t-20.5 48q-2 8 1 16t10 12l27 16q-2 21 0 42l-27 16q-7 4 -10 12t-1 16q9 28 20.5 48t30.5 40q5 6 13.5 7.5t15.5 -2.5l28 -16q16 12 36 21v31q0 9 5.5 15.5t13.5 8.5q27 6 50 6
t52 -6q8 -2 13.5 -8.5t5.5 -15.5v-31q19 -8 36 -21l27 16q8 4 16.5 2.5t13.5 -7.5q20 -22 32 -42.5t20 -45.5q3 -8 0 -16t-10 -12l-25 -16q3 -21 0 -42l28 -18q7 -4 10 -11t1 -14q-8 -38 -56 -89q-6 -6 -14 -7.5t-16 2.5l-27 16q-17 -12 -36 -21v-32q0 -8 -5.5 -14.5
t-13.5 -8.5q-28 -6 -51 -6t-51 6q-8 2 -13.5 8.5t-5.5 15.5zM177 0q38 -8 76 0v48l10 3q26 9 46 27l9 7l41 -24q33 37 42 65l-41 24l2 12q5 26 0 53l-2 11l41 24q-9 28 -42 65l-41 -24l-9 7q-20 18 -46 27l-10 4v47q-38 8 -76 0v-47l-10 -4q-26 -9 -46 -27l-9 -7l-41 24
q-26 -29 -38 -66l41 -23l-2 -11q-5 -27 0 -54l2 -11l-41 -24q12 -36 38 -65l41 24l9 -7q20 -18 46 -27l10 -4v-47zM216 105q-35 0 -59 24.5t-24 58.5t24 58.5t58.5 24.5t59 -24.5t24.5 -58.5t-24.5 -58.5t-58.5 -24.5zM216 239q-21 0 -36 -15t-15 -36t15 -36t36 -15t36 15
t15 36t-15 36t-36 15zM539 -53l-3 4h-12l-3 -4q-4 -7 -11.5 -9.5t-15.5 -0.5q-20 6 -34 18q-7 6 -8.5 14.5t2.5 16.5l3 4q-4 5 -6 10h-9q-9 0 -15.5 5.5t-8.5 14.5q-4 19 0 39q2 8 8.5 13.5t15.5 5.5h9q2 6 6 11l-3 4q-4 8 -2.5 16.5t7.5 13.5q15 13 34 19q8 3 16 0t12 -10
l3 -5q6 1 12 0l3 5q4 7 12 10t16 0q19 -6 34 -19q6 -5 7.5 -13.5t-2.5 -16.5l-3 -4q4 -5 6 -11h6q8 0 14.5 -5.5t8.5 -14.5q4 -19 0 -38q-2 -9 -8.5 -14.5t-15.5 -5.5h-5q-2 -5 -6 -10l3 -4q4 -8 2.5 -16.5t-8.5 -14.5q-14 -12 -34 -18q-8 -2 -15.5 0.5t-11.5 9.5zM551 -18
l10 -18q10 4 19 10l-10 19l6 7q7 9 11 19l3 10h21q2 10 0 21h-21l-3 9q-4 11 -11 19l-6 8l10 18q-8 7 -19 11l-10 -18l-10 2q-11 2 -22 0l-10 -2l-10 18q-10 -4 -19 -11l11 -18l-7 -8q-7 -9 -11 -19l-3 -9h-21q-2 -11 0 -21h21l3 -10q4 -10 11 -19l7 -7l-11 -19q8 -6 19 -10
l10 18l10 -2q11 -2 22 0zM560 40q0 13 -9.5 22.5t-22.5 9.5t-22.5 -9.5t-9.5 -22.5t9.5 -22.5t22.5 -9.5t22.5 9.5t9.5 22.5zM560 344q0 14 -9.5 23t-22.5 9t-22.5 -9t-9.5 -22.5t9.5 -23t22.5 -9.5t22.5 9.5t9.5 22.5z" />
    <glyph glyph-name="comments" unicode="&#xf086;" horiz-adv-x="576" 
d="M532 62q44 43 44 98q0 39 -23 73t-63.5 56.5t-89.5 28.5q-24 44 -76 71t-116 27q-57 0 -104.5 -21.5t-75.5 -58.5t-28 -80q0 -55 44 -98q-10 -19 -24 -39q-9 -12 -13.5 -16.5t-6 -11.5t1.5 -13t8.5 -10t12.5 -4q66 0 125 39q14 -3 28 -5q24 -44 76 -71t116 -27q31 0 60 7
q60 -39 125 -39q7 0 13 4t8.5 10t1.5 13t-6 12q-3 2 -13 16q-15 20 -25 39zM142 137l-11 -7q-42 -28 -88 -33q18 23 30 46l10 21l-16 17q-35 33 -35 75q0 35 23.5 64.5t64 46.5t88.5 17t88.5 -17t64 -46.5t23.5 -64.5t-23.5 -64.5t-64 -46.5t-88.5 -17q-27 0 -53 6zM445 34
l-11 7l-13 -3q-26 -6 -53 -6q-48 0 -88.5 17.5t-63.5 46.5q54 2 100 23.5t73 58t27 78.5q0 13 -3 28q57 -11 94 -45.5t37 -78.5q0 -42 -35 -75l-16 -17l10 -20q12 -24 30 -47q-46 5 -88 33zM407 301h1v0h-1z" />
    <glyph glyph-name="sign-out" unicode="&#xf08b;" 
d="M48 384h132q5 0 8.5 -3.5t3.5 -8.5v-8q0 -5 -3.5 -8.5t-8.5 -3.5h-132q-7 0 -11.5 -4.5t-4.5 -11.5v-288q0 -7 4.5 -11.5t11.5 -4.5h132q5 0 8.5 -3.5t3.5 -8.5v-8q0 -5 -3.5 -8.5t-8.5 -3.5h-132q-20 0 -34 14t-14 34v288q0 20 14 34t34 14zM327 365l-7 -8q-4 -3 -4 -8
t4 -9l132 -131h-280q-5 0 -8.5 -3.5t-3.5 -8.5v-10q0 -5 3.5 -8.5t8.5 -3.5h280l-132 -131q-4 -4 -4 -9t4 -8l7 -7q4 -4 9 -4t8 3l165 165q3 3 3 8t-3 9l-165 164q-4 3 -8.5 3t-8.5 -3z" />
    <glyph glyph-name="thumbtack" unicode="&#xf08d;" horiz-adv-x="384" 
d="M301 244l-10 76h37q10 0 17 7t7 17v80q0 10 -7 17t-17 7h-272q-10 0 -17 -7t-7 -17v-80q0 -10 7 -17t17 -7h37l-10 -76q-38 -21 -59 -55q-24 -35 -24 -76q0 -7 4.5 -11.5t11.5 -4.5h160v-123l8 -32q2 -6 8 -6t8 6l8 34v121h160q7 0 11.5 4.5t4.5 11.5q0 41 -24 76
q-21 34 -59 55zM33 129q5 31 28 56q20 24 52 38l15 129h-64v64h256v-64h-64l15 -129q32 -14 52 -38q23 -25 28 -56h-318z" />
    <glyph glyph-name="external-link" unicode="&#xf08e;" horiz-adv-x="576" 
d="M196 73q-4 4 -4 9t4 8l323 323l-1 1h-90q-5 0 -8.5 3.5t-3.5 8.5v10q0 5 3.5 8.5t8.5 3.5h136q5 0 8.5 -3.5t3.5 -8.5v-136q0 -5 -3.5 -8.5t-8.5 -3.5h-10q-5 0 -8.5 3.5t-3.5 8.5v90l-1 1l-323 -323q-3 -4 -8 -4t-9 4zM428 229l-8 -8q-4 -4 -4 -9v-228q0 -7 -4.5 -11.5
t-11.5 -4.5h-352q-7 0 -11.5 4.5t-4.5 11.5v352q0 7 4.5 11.5t11.5 4.5h340q5 0 8 4l8 8q6 5 3 12.5t-11 7.5h-348q-20 0 -34 -14t-14 -34v-352q0 -20 14 -34t34 -14h352q20 0 34 14t14 34v236q0 8 -7.5 11t-12.5 -2z" />
    <glyph glyph-name="sign-in" unicode="&#xf090;" 
d="M184 365l165 -164q3 -4 3 -9t-3 -9l-165 -163q-4 -4 -8.5 -4t-8.5 3l-7 8q-4 3 -4 8t4 9l132 131h-280q-5 0 -8.5 3.5t-3.5 8.5v10q0 5 3.5 8.5t8.5 3.5h280l-132 131q-4 4 -4 9t4 8l7 8q4 3 8.5 3t8.5 -3zM512 48v288q0 20 -14 34t-34 14h-132q-5 0 -8.5 -3.5t-3.5 -8.5
v-8q0 -5 3.5 -8.5t8.5 -3.5h132q7 0 11.5 -4.5t4.5 -11.5v-288q0 -7 -4.5 -11.5t-11.5 -4.5h-132q-5 0 -8.5 -3.5t-3.5 -8.5v-8q0 -5 3.5 -8.5t8.5 -3.5h132q20 0 34 14t14 34z" />
    <glyph glyph-name="upload" unicode="&#xf093;" 
d="M452 16q0 -8 -6 -14t-14 -6t-14 6t-6 14t6 14t14 6t14 -6t6 -14zM368 36q-8 0 -14 -6t-6 -14t6 -14t14 -6t14 6t6 14t-6 14t-14 6zM512 84v-104q0 -18 -13 -31t-31 -13h-424q-18 0 -31 13t-13 31v104q0 18 13 31t31 13h124v99h-53q-17 0 -28 12t-11.5 28t11.5 29l141 140
q11 12 28 12t28 -12l141 -140q12 -13 11.5 -29t-11.5 -28t-28 -12h-53v-99h124q18 0 31 -13t13 -31zM200 259v-187q0 -3 2.5 -5.5t5.5 -2.5h96q3 0 5.5 2.5t2.5 5.5v187h85q5 0 7 5t-2 9l-140 141q-3 2 -6 2t-6 -2l-140 -141q-4 -4 -2 -9t7 -5h85zM480 84q0 5 -3.5 8.5
t-8.5 3.5h-124v-24q0 -17 -11.5 -28.5t-28.5 -11.5h-96q-17 0 -28.5 11.5t-11.5 28.5v24h-124q-5 0 -8.5 -3.5t-3.5 -8.5v-104q0 -5 3.5 -8.5t8.5 -3.5h424q5 0 8.5 3.5t3.5 8.5v104z" />
    <glyph glyph-name="phone" unicode="&#xf095;" 
d="M488 424l-101 23q-11 3 -21 -2t-15 -16l-46 -108q-4 -10 -1.5 -20t10.5 -17l54 -44q-26 -52 -67 -93t-93 -67l-44 54q-7 8 -17 10.5t-20 -1.5l-108 -46q-11 -5 -16 -15t-2 -21l23 -101q2 -10 11 -17t19 -7q125 0 231 62q104 61 164 164q63 107 63 232q0 10 -7 19t-17 11z
M55 -32l-23 100l108 46l59 -73q78 36 125 83t83 125l-73 59l46 108l100 -23q0 -116 -58 -214q-57 -97 -153 -153q-99 -58 -214 -58z" />
    <glyph glyph-name="phone-square" unicode="&#xf098;" horiz-adv-x="448" 
d="M400 416h-352q-20 0 -34 -14t-14 -34v-352q0 -20 14 -34t34 -14h352q20 0 34 14t14 34v352q0 20 -14 34t-34 14zM416 16q0 -7 -4.5 -11.5t-11.5 -4.5h-352q-7 0 -11.5 4.5t-4.5 11.5v352q0 7 4.5 11.5t11.5 4.5h352q7 0 11.5 -4.5t4.5 -11.5v-352zM361 338l-58 13
q-11 3 -20.5 -2t-13.5 -15l-27 -63q-4 -9 -1.5 -18.5t9.5 -15.5l24 -20q-26 -49 -75 -75l-20 24q-6 7 -15.5 9.5t-18.5 -1.5l-63 -27q-10 -4 -15 -13.5t-2 -20.5l13 -58q3 -10 11 -16.5t18 -6.5q75 0 139 37t100 100q38 65 38 140q0 10 -6.5 18t-16.5 11zM109 64l-13 55
l60 25l34 -42q47 22 74.5 49t49.5 75l-42 34l25 60l55 -13q-1 -66 -33.5 -121.5t-88 -88t-121.5 -33.5z" />
    <glyph glyph-name="unlock" unicode="&#xf09c;" horiz-adv-x="384" 
d="M336 192h-240v96q0 58 22 90q24 38 74 38t74 -38q22 -32 22 -90v-20q0 -5 3.5 -8.5t8.5 -3.5h8q5 0 8.5 3.5t3.5 8.5v19q0 70 -31 113q-33 48 -96.5 48t-97.5 -47q-31 -42 -31 -113v-96h-16q-20 0 -34 -14t-14 -34v-160q0 -20 14 -34t34 -14h288q20 0 34 14t14 34v160
q0 20 -14 34t-34 14zM352 -16q0 -7 -4.5 -11.5t-11.5 -4.5h-288q-7 0 -11.5 4.5t-4.5 11.5v160q0 7 4.5 11.5t11.5 4.5h288q7 0 11.5 -4.5t4.5 -11.5v-160z" />
    <glyph glyph-name="credit-card" unicode="&#xf09d;" horiz-adv-x="576" 
d="M528 416h-480q-20 0 -34 -14t-14 -34v-352q0 -20 14 -34t34 -14h480q20 0 34 14t14 34v352q0 20 -14 34t-34 14zM48 384h480q7 0 11.5 -4.5t4.5 -11.5v-48h-512v48q0 7 4.5 11.5t11.5 4.5zM528 0h-480q-7 0 -11.5 4.5t-4.5 11.5v208h512v-208q0 -7 -4.5 -11.5t-11.5 -4.5
zM192 84v-8q0 -5 -3.5 -8.5t-8.5 -3.5h-72q-5 0 -8.5 3.5t-3.5 8.5v8q0 5 3.5 8.5t8.5 3.5h72q5 0 8.5 -3.5t3.5 -8.5zM384 84v-8q0 -5 -3.5 -8.5t-8.5 -3.5h-136q-5 0 -8.5 3.5t-3.5 8.5v8q0 5 3.5 8.5t8.5 3.5h136q5 0 8.5 -3.5t3.5 -8.5z" />
    <glyph glyph-name="hdd" unicode="&#xf0a0;" horiz-adv-x="576" 
d="M567 221l-105 143q-6 10 -16.5 15t-21.5 5h-272q-11 0 -21.5 -5t-16.5 -15l-105 -143q-9 -13 -9 -29v-144q0 -20 14 -34t34 -14h480q20 0 34 14t14 34v144q0 16 -9 29zM140 345q4 7 12 7h272q8 0 12 -7l89 -121h-474zM544 176v-128q0 -7 -4.5 -11.5t-11.5 -4.5h-480
q-7 0 -11.5 4.5t-4.5 11.5v128q0 7 4.5 11.5t11.5 4.5h480q7 0 11.5 -4.5t4.5 -11.5zM488 112q0 -10 -7 -17t-17 -7t-17 7t-7 17t7 17t17 7t17 -7t7 -17zM424 112q0 -10 -7 -17t-17 -7t-17 7t-7 17t7 17t17 7t17 -7t7 -17z" />
    <glyph glyph-name="bullhorn" unicode="&#xf0a1;" horiz-adv-x="576" 
d="M544 263v153q0 10 -7 19q-9 13 -25 13v0q-11 0 -20 -7l-85 -68q-32 -26 -71 -39.5t-80 -13.5h-192q-27 0 -45.5 -18.5t-18.5 -45.5v-96q0 -27 18.5 -45.5t45.5 -18.5v-32q0 -58 25 -111q4 -8 11.5 -12.5t16.5 -4.5h107q12 0 21 8.5t10.5 20.5t-5.5 22q-26 34 -26 77
q0 16 4 32h28q41 0 80 -13.5t71 -39.5l85 -68q9 -7 20 -7q16 0 25 13q7 9 7 19v153q15 8 23.5 23t8.5 32t-8.5 32t-23.5 23zM224 -32h-106q-22 46 -22 96v32h99q-3 -18 -3 -32q0 -54 32 -96zM64 128q-13 0 -22.5 9.5t-9.5 22.5v96q0 13 9.5 22.5t22.5 9.5h192v-160h-192z
M512 1v-1l-85 68q-61 49 -139 58v164q78 9 139 58l85 68v-415z" />
    <glyph glyph-name="arrow-circle-left" unicode="&#xf0a8;" 
d="M504 192q0 67 -33.5 124t-90.5 90.5t-124 33.5t-124 -33.5t-90.5 -90.5t-33.5 -124t33.5 -124t90.5 -90.5t124 -33.5t124 33.5t90.5 90.5t33.5 124zM256 -24q-58 0 -108 29t-79 78.5t-29 108t29 108.5t78.5 79t108 29t108.5 -29t79 -78.5t29 -108t-29 -108.5t-78.5 -79
t-108.5 -29zM244 69l-116 115q-3 3 -3 8t3 9l116 115q3 3 8 3t9 -3l6 -7q4 -4 4 -9t-4 -8l-85 -83h190q5 0 8.5 -3.5t3.5 -8.5v-10q0 -5 -3.5 -8.5t-8.5 -3.5h-190l85 -82q4 -4 4 -9t-3 -9l-7 -6q-4 -4 -9 -4t-9 4h1z" />
    <glyph glyph-name="arrow-circle-right" unicode="&#xf0a9;" 
d="M8 192q0 -67 33.5 -124t90.5 -90.5t124 -33.5t124 33.5t90.5 90.5t33.5 124t-33.5 124t-90.5 90.5t-124 33.5t-124 -33.5t-90.5 -90.5t-33.5 -124zM256 408q58 0 108 -29t79 -78.5t29 -108t-29 -108.5t-78.5 -79t-108 -29t-108.5 29t-79 78.5t-29 108t29 108.5t78.5 79
t108.5 29zM269 316l115 -115q3 -4 3 -9t-3 -9l-115 -114q-4 -4 -9 -4t-8 4l-7 6q-4 4 -4 9t4 9l85 82h-190q-5 0 -8.5 3.5t-3.5 8.5v10q0 5 3.5 8.5t8.5 3.5h190l-85 83q-4 3 -4 8t4 9l6 7q4 3 9 3t8 -3h1z" />
    <glyph glyph-name="arrow-circle-up" unicode="&#xf0aa;" 
d="M256 -56q67 0 124 33.5t90.5 90.5t33.5 124t-33.5 124t-90.5 90.5t-124 33.5t-124 -33.5t-90.5 -90.5t-33.5 -124t33.5 -124t90.5 -90.5t124 -33.5zM40 192q0 58 29 108t78.5 79t108 29t108.5 -29t79 -78.5t29 -108t-29 -108.5t-78.5 -79t-108 -29t-108.5 29t-79 78.5
t-29 108.5zM133 205l115 115q3 3 8 3t9 -3l115 -115q3 -4 3 -9t-3 -9l-7 -6q-4 -4 -9 -4t-8 4l-83 85v-190q0 -5 -3.5 -8.5t-8.5 -3.5h-10q-5 0 -8.5 3.5t-3.5 8.5v190l-82 -85q-4 -4 -9 -4t-9 4l-6 6q-4 4 -4 9t4 8v1z" />
    <glyph glyph-name="arrow-circle-down" unicode="&#xf0ab;" 
d="M256 440q-67 0 -124 -33.5t-90.5 -90.5t-33.5 -124t33.5 -124t90.5 -90.5t124 -33.5t124 33.5t90.5 90.5t33.5 124t-33.5 124t-90.5 90.5t-124 33.5zM472 192q0 -58 -29 -108t-78.5 -79t-108 -29t-108.5 29t-79 78.5t-29 108t29 108.5t78.5 79t108 29t108.5 -29t79 -78.5
t29 -108.5zM380 197l-7 6q-4 4 -9 4t-8 -4l-83 -85v190q0 5 -3.5 8.5t-8.5 3.5h-10q-5 0 -8.5 -3.5t-3.5 -8.5v-190l-82 85q-4 4 -9 4t-9 -3l-6 -7q-4 -4 -4 -9t4 -8l115 -115q3 -4 8 -4t9 4l115 115q3 3 3 8t-3 8v1z" />
    <glyph glyph-name="wrench" unicode="&#xf0ad;" 
d="M507 334q-3 15 -18.5 19t-26.5 -7l-64 -64l-44 8l-8 44l64 64q11 11 7 26q-2 7 -7.5 12.5t-12.5 6.5q-38 10 -76.5 -0.5t-66.5 -39t-38.5 -67t0.5 -77.5l-194 -193q-22 -23 -22 -54.5t22 -53.5t53.5 -22t54.5 22l193 193q39 -10 77.5 0.5t67 39t39 66.5t0.5 77zM445 213
q-24 -24 -56.5 -31.5t-65.5 3.5l-9 3l-207 -207q-12 -13 -31 -13t-31.5 13t-12.5 31t13 31l207 207l-3 9q-11 33 -3.5 65.5t31.5 56.5q17 17 38.5 26t45.5 9q10 0 20 -2l-69 -69l14 -83l83 -14l69 69q5 -28 -3.5 -55.5t-29.5 -48.5zM80 32q-7 0 -11.5 -4.5t-4.5 -11.5
t4.5 -11.5t11.5 -4.5t11.5 4.5t4.5 11.5t-4.5 11.5t-11.5 4.5z" />
    <glyph glyph-name="filter" unicode="&#xf0b0;" 
d="M480 448h-448q-14 0 -23 -9.5t-9 -22.5t9 -23l183 -182v-187q0 -15 11 -24l64 -56q10 -9 22.5 -8t21.5 10t9 22v243l183 182q9 10 9 23t-9 22.5t-23 9.5zM288 224v-256l-64 56v200l-192 192h448z" />
    <glyph glyph-name="briefcase" unicode="&#xf0b1;" 
d="M464 320h-112v72q0 10 -7 17t-17 7h-144q-10 0 -17 -7t-7 -17v-72h-112q-20 0 -34 -14t-14 -34v-256q0 -20 14 -34t34 -14h416q20 0 34 14t14 34v256q0 20 -14 34t-34 14zM192 384h128v-64h-128v64zM480 16q0 -7 -4.5 -11.5t-11.5 -4.5h-416q-7 0 -11.5 4.5t-4.5 11.5
v144h160v-40q0 -10 7 -17t17 -7h80q10 0 17 7t7 17v40h160v-144zM224 128v32h64v-32h-64zM480 192h-448v80q0 7 4.5 11.5t11.5 4.5h416q7 0 11.5 -4.5t4.5 -11.5v-80z" />
    <glyph glyph-name="arrows-alt" unicode="&#xf0b2;" 
d="M322 68h-50v108h108v-50q0 -15 9.5 -24t23 -9.5t23.5 9.5l66 67q10 9 10 23t-10 23l-66 67q-10 10 -23.5 9.5t-23 -9.5t-9.5 -24v-50h-108v108h50q15 0 24 9.5t9.5 23t-9.5 23.5l-67 66q-9 10 -23 10t-23 -10l-67 -66q-10 -10 -9.5 -23.5t9.5 -23t24 -9.5h50v-108h-108
v50q0 15 -9.5 24t-23 9.5t-23.5 -9.5l-66 -67q-10 -9 -10 -23t10 -23l66 -67q10 -10 23.5 -9.5t23 9.5t9.5 24v50h108v-108h-50q-15 0 -24 -9.5t-9.5 -23t9.5 -23.5l67 -66q9 -10 23 -10t23 10l67 66q10 10 9.5 23.5t-9.5 23t-24 9.5zM415 261l67 -66q1 -1 1 -3t-1 -3
l-67 -66q-2 -2 -4.5 -1t-2.5 4v132q0 3 2.5 4t4.5 -1zM190 344q-3 0 -4 2.5t1 4.5l66 67q1 1 3 1t3 -1l66 -67q2 -2 1 -4.5t-4 -2.5h-132zM97 123l-67 66q-1 1 -1 3t1 3l67 66q2 2 4.5 1t2.5 -4v-132q0 -3 -2.5 -4t-4.5 1zM253 -34l-66 67q-2 2 -1 4.5t4 2.5h132q3 0 4 -2.5
t-1 -4.5l-66 -67q-1 -1 -3 -1t-3 1z" />
    <glyph glyph-name="users" unicode="&#xf0c0;" horiz-adv-x="640" 
d="M544 224q33 0 56.5 23.5t23.5 56.5t-23.5 56.5t-56.5 23.5t-56.5 -23.5t-23.5 -56.5t23.5 -56.5t56.5 -23.5zM544 352q20 0 34 -14t14 -34t-14 -34t-34 -14t-34 14t-14 34t14 34t34 14zM320 192q30 0 56 15t41 41t15 56t-15 56t-41 41t-56 15t-56 -15t-41 -41t-15 -56
t15 -56t41 -41t56 -15zM320 384q33 0 56.5 -23.5t23.5 -56.5t-23.5 -56.5t-56.5 -23.5t-56.5 23.5t-23.5 56.5t23.5 56.5t56.5 23.5zM564 192h-40q-22 0 -41 -13q14 -10 25 -22q8 3 16 3h40q18 0 31 -14t13 -34q0 -7 4.5 -11.5t11.5 -4.5t11.5 4.5t4.5 11.5q0 33 -22.5 56.5
t-53.5 23.5zM96 224q33 0 56.5 23.5t23.5 56.5t-23.5 56.5t-56.5 23.5t-56.5 -23.5t-23.5 -56.5t23.5 -56.5t56.5 -23.5zM96 352q20 0 34 -14t14 -34t-14 -34t-34 -14t-34 14t-14 34t14 34t34 14zM400 172q-16 0 -37 -6q-23 -6 -43 -6t-43 6q-21 6 -37 6q-28 0 -52.5 -12
t-39.5 -35q-20 -29 -20 -64v-45q0 -20 14 -34t34 -14h288q20 0 34 14t14 34v45q0 35 -20 64q-15 23 -39.5 35t-52.5 12zM480 16q0 -7 -4.5 -11.5t-11.5 -4.5h-288q-7 0 -11.5 4.5t-4.5 11.5v45q0 25 14 46q10 16 27.5 24.5t38.5 8.5q12 0 30 -5q26 -7 50 -7t50 7q18 5 30 5
q21 0 38 -8.5t28 -24.5q14 -21 14 -46v-45zM157 179q-19 13 -41 13h-40q-31 0 -53.5 -23.5t-22.5 -56.5q0 -7 4.5 -11.5t11.5 -4.5t11.5 4.5t4.5 11.5q0 20 13 34t31 14h40q8 0 16 -3q11 12 25 22z" />
    <glyph glyph-name="link" unicode="&#xf0c1;" 
d="M301 53l-79 -79q-25 -25 -58.5 -33.5t-67 0t-58.5 33.5t-33.5 58.5t0 67t33.5 58.5l83 83q5 5 12.5 2t7.5 -10.5t1 -14t-3 -10.5l-75 -76q-28 -27 -28 -66t27.5 -66.5t66.5 -27.5t66 28l80 79q27 28 27 66.5t-27 66.5q-12 12 -28 19q-8 3 -7.5 11t3.5 16q1 5 6 7t10 0
q23 -10 41 -28q25 -25 34 -58.5t0 -67t-34 -58.5zM211 147q18 -18 41 -28q5 -2 10 0t6 7q3 8 3.5 16t-7.5 11q-16 7 -28 19q-27 28 -27 66.5t27 66.5l80 79q27 28 66 28t66.5 -27.5t27.5 -66.5t-28 -66l-75 -76q-4 -4 -3 -10.5t1 -14t7.5 -10.5t12.5 2l83 83
q25 25 33.5 58.5t0 67t-33.5 58.5t-58.5 33.5t-67 0t-58.5 -33.5l-79 -79q-25 -25 -34 -58.5t0 -67t34 -58.5z" />
    <glyph glyph-name="cloud" unicode="&#xf0c2;" horiz-adv-x="640" 
d="M572 209q4 15 4 31q0 30 -15 56t-41 41t-56 15q-25 0 -48 -11q-24 35 -62 55t-82 20q-46 0 -86 -22.5t-64 -61t-26 -84.5q-43 -15 -69.5 -52.5t-26.5 -83.5q0 -39 19.5 -72t52.5 -52.5t72 -19.5h368q35 0 64.5 17t46.5 46.5t17 64.5t-18.5 65.5t-49.5 47.5zM512 0h-368
q-30 0 -56 15t-41 41t-15 56q0 42 28 73.5t69 37.5q-1 8 -1 17q0 39 19.5 72t52.5 52.5t72 19.5q45 0 81 -25t52 -65q24 26 58 26t57.5 -23.5t23.5 -56.5q0 -28 -17 -49q35 -6 58 -32.5t23 -62.5q0 -40 -28 -68t-68 -28z" />
    <glyph glyph-name="cut" unicode="&#xf0c4;" horiz-adv-x="448" 
d="M250 192l197 197q3 3 0 6q-10 9 -23 9t-22 -9l-178 -178l-49 49q17 24 17 54q0 40 -28 68t-68 28t-68 -28t-28 -68t28 -68t68 -28q30 0 54 17l49 -49l-49 -49q-24 17 -54 17q-40 0 -68 -28t-28 -68t28 -68t68 -28t68 28t28 68q0 30 -17 54l49 49l178 -178q9 -9 22 -9
t23 9q3 3 0 6zM96 256q-26 0 -45 19t-19 45t19 45t45 19t45 -19t19 -45t-19 -45t-45 -19zM96 0q-26 0 -45 19t-19 45t19 45t45 19t45 -19t19 -45t-19 -45t-45 -19z" />
    <glyph glyph-name="copy" unicode="&#xf0c5;" horiz-adv-x="448" 
d="M434 382l-52 52q-14 14 -34 14h-172q-20 0 -34 -14t-14 -34v-48h-80q-20 0 -34 -14t-14 -34v-320q0 -20 14 -34t34 -14h224q20 0 34 14t14 34v48h80q20 0 34 14t14 34v268q0 20 -14 34zM352 416q4 -2 7 -5l52 -52q3 -3 5 -7h-64v64zM288 -16q0 -7 -4.5 -11.5t-11.5 -4.5
h-224q-7 0 -11.5 4.5t-4.5 11.5v320q0 7 4.5 11.5t11.5 4.5h80v-240q0 -20 14 -34t34 -14h112v-48zM416 80q0 -7 -4.5 -11.5t-11.5 -4.5h-224q-7 0 -11.5 4.5t-4.5 11.5v320q0 7 4.5 11.5t11.5 4.5h144v-72q0 -10 7 -17t17 -7h72v-240z" />
    <glyph glyph-name="paperclip" unicode="&#xf0c6;" 
d="M149 -64q-25 0 -49 9.5t-42 28.5q-25 25 -33.5 58t0 66.5t33.5 57.5l262 263q29 29 71 29t71.5 -29.5t29.5 -71.5t-29 -71l-223 -223q-21 -21 -51.5 -21t-51.5 21t-21 51.5t21 51.5l171 170q3 4 8 4t8 -4l6 -5q4 -4 4 -9t-4 -8l-170 -171q-12 -12 -12 -28.5t12 -28.5
t28.5 -12t28.5 12l223 222q20 21 20 49.5t-20 48.5t-48.5 20t-49.5 -20l-262 -262q-28 -29 -28 -69t28.5 -68.5t68.5 -28.5t69 28l218 218q3 4 8 4t9 -4l5 -6q4 -3 4 -8t-4 -8l-218 -218q-18 -19 -42 -28.5t-49 -9.5z" />
    <glyph glyph-name="save" unicode="&#xf0c7;" horiz-adv-x="448" 
d="M434 318l-84 84q-14 14 -34 14h-268q-20 0 -34 -14t-14 -34v-352q0 -20 14 -34t34 -14h352q20 0 34 14t14 34v268q0 20 -14 34zM288 384v-96h-192v96h192zM416 16q0 -7 -4.5 -11.5t-11.5 -4.5h-352q-7 0 -11.5 4.5t-4.5 11.5v352q0 7 4.5 11.5t11.5 4.5h16v-104
q0 -10 7 -17t17 -7h208q10 0 17 7t7 17v104q4 -2 7 -5l84 -84q5 -4 5 -11v-268zM224 216q-36 0 -62 -26t-26 -62t26 -62t62 -26t62 26t26 62t-26 62t-62 26zM224 72q-23 0 -39.5 16.5t-16.5 39.5t16.5 39.5t39.5 16.5t39.5 -16.5t16.5 -39.5t-16.5 -39.5t-39.5 -16.5z" />
    <glyph glyph-name="bars" unicode="&#xf0c9;" horiz-adv-x="448" 
d="M442 334h-436q-2 0 -4 2t-2 4v24q0 2 2 4t4 2h436q2 0 4 -2t2 -4v-24q0 -2 -2 -4t-4 -2zM442 174h-436q-2 0 -4 2t-2 4v24q0 2 2 4t4 2h436q2 0 4 -2t2 -4v-24q0 -2 -2 -4t-4 -2zM442 14h-436q-2 0 -4 2t-2 4v24q0 2 2 4t4 2h436q2 0 4 -2t2 -4v-24q0 -2 -2 -4t-4 -2z
" />
    <glyph glyph-name="truck" unicode="&#xf0d1;" horiz-adv-x="640" 
d="M632 64h-24v108q0 27 -19 45l-84 84q-18 19 -45 19h-44v49q0 20 -14.5 33.5t-34.5 13.5h-318q-20 0 -34.5 -13.5t-14.5 -33.5v-290q0 -20 14.5 -33.5t34.5 -13.5h17q-2 -8 -2 -16q0 -33 23.5 -56.5t56.5 -23.5t56.5 23.5t23.5 56.5q0 8 -2 16h196q-2 -8 -2 -16
q0 -33 23.5 -56.5t56.5 -23.5t56.5 23.5t23.5 56.5q0 8 -2 16h58q3 0 5.5 2.5t2.5 5.5v16q0 3 -2.5 5.5t-5.5 2.5zM460 288q13 0 23 -9l84 -84l1 -3h-152v96h44zM144 -32q-20 0 -34 14t-14 34t14 34t34 14t34 -14t14 -34t-14 -34t-34 -14zM208 64q-12 15 -28.5 23.5
t-35.5 8.5t-35.5 -8.5t-28.5 -23.5h-31q-7 0 -12 4.5t-5 10.5v290q0 6 5 10.5t12 4.5h318q7 0 12 -4.5t5 -10.5v-305h-176zM496 -32q-20 0 -34 14t-14 34t14 34t34 14t34 -14t14 -34t-14 -34t-34 -14zM496 96q-19 0 -35.5 -8.5t-28.5 -23.5h-16v96h160v-96h-16
q-12 15 -28.5 23.5t-35.5 8.5z" />
    <glyph glyph-name="columns" unicode="&#xf0db;" 
d="M464 416h-416q-20 0 -34 -14t-14 -34v-352q0 -20 14 -34t34 -14h416q20 0 34 14t14 34v352q0 20 -14 34t-34 14zM240 0h-192q-7 0 -11.5 4.5t-4.5 11.5v336h208v-352zM480 16q0 -7 -4.5 -11.5t-11.5 -4.5h-192v352h208v-336z" />
    <glyph glyph-name="envelope" unicode="&#xf0e0;" 
d="M464 384h-416q-20 0 -34 -14t-14 -34v-288q0 -20 14 -34t34 -14h416q20 0 34 14t14 34v288q0 20 -14 34t-34 14zM48 352h416q7 0 11.5 -4.5t4.5 -11.5v-41q-35 -30 -151 -122l-10 -8q-20 -17 -31 -24q-19 -13 -32 -13t-32 13q-12 7 -32 24l-9 8q-116 92 -151 122v41
q0 7 4.5 11.5t11.5 4.5zM464 32h-416q-7 0 -11.5 4.5t-4.5 11.5v205q35 -28 131 -105l10 -8q23 -20 38 -29q25 -15 45 -15t45 15q14 9 38 29l10 8q96 77 131 105v-205q0 -7 -4.5 -11.5t-11.5 -4.5z" />
    <glyph glyph-name="undo" unicode="&#xf0e2;" 
d="M20 440h10q5 0 8.5 -3.5t3.5 -8.5v-111q33 57 90 90t124.5 33t124.5 -33.5t90 -90.5t33 -124.5t-33.5 -124t-90.5 -90t-124 -33.5q-47 0 -90 17t-76 47q-4 3 -4 8.5t3 8.5l7 7q4 4 8.5 4t8.5 -3q29 -26 65.5 -40.5t77.5 -14.5q58 0 107 28.5t78 78t29 107.5t-28.5 107
t-78 78t-107.5 29q-61 0 -112 -31.5t-78 -84.5h114q5 0 8.5 -3.5t3.5 -8.5v-10q0 -5 -3.5 -8.5t-8.5 -3.5h-160q-5 0 -8.5 3.5t-3.5 8.5v160q0 5 3.5 8.5t8.5 3.5z" />
    <glyph glyph-name="bolt" unicode="&#xf0e7;" horiz-adv-x="320" 
d="M296 288h-115l42 130q3 11 -4 20.5t-19 9.5h-144q-9 0 -16 -6t-8 -15l-32 -240q-1 -11 6 -19t18 -8h119l-46 -194q-3 -12 4 -21t19 -9q14 0 21 12l176 304q7 12 0 24t-21 12zM140 11l34 142l9 39h-150l30 224h126l-53 -160h146z" />
    <glyph glyph-name="paste" unicode="&#xf0ea;" horiz-adv-x="448" 
d="M434 254l-52 52q-14 14 -34 14h-28v48q0 20 -14 34t-34 14h-67q-5 14 -17.5 23t-27.5 9t-27.5 -9t-17.5 -23h-67q-20 0 -34 -14t-14 -34v-288q0 -20 14 -34t34 -14h80v-48q0 -20 14 -34t34 -14h224q20 0 34 14t14 34v236q0 20 -14 34zM411 231q3 -3 5 -7h-64v64
q4 -2 7 -5zM160 418q7 0 12.5 -5.5t5.5 -12.5t-5.5 -12.5t-12.5 -5.5t-12.5 5.5t-5.5 12.5t5.5 12.5t12.5 5.5zM48 64q-7 0 -11.5 4.5t-4.5 11.5v288q0 7 4.5 11.5t11.5 4.5h67q5 -14 17.5 -23t27.5 -9t27.5 9t17.5 23h67q7 0 11.5 -4.5t4.5 -11.5v-48h-112q-20 0 -34 -14
t-14 -34v-208h-80zM400 -32h-224q-7 0 -11.5 4.5t-4.5 11.5v288q0 7 4.5 11.5t11.5 4.5h144v-72q0 -10 7 -17t17 -7h72v-208q0 -7 -4.5 -11.5t-11.5 -4.5z" />
    <glyph glyph-name="lightbulb" unicode="&#xf0eb;" horiz-adv-x="352" 
d="M176 448q-50 0 -91 -25q-40 -24 -62.5 -64.5t-22.5 -86.5q0 -33 11.5 -62.5t32.5 -53.5q18 -20 35 -51q15 -29 17 -41v-75q0 -5 3 -9l24 -37q5 -7 14 -7h78q9 0 14 7l24 37q3 4 3 9v75q2 13 18 41q16 31 34 51q21 24 32.5 53.5t11.5 62.5q0 48 -23.5 88.5t-64 64
t-88.5 23.5zM224 -6l-17 -26h-62l-17 26v6h96v-6zM224 32h-96v32h96v-32zM284 177q-12 -13 -25 -34q-15 -24 -25 -47h-116q-10 23 -25 47q-13 21 -25 34q-36 41 -36 95q0 38 18.5 71.5t51.5 53t73 19.5t73 -19.5t52.5 -52.5t19.5 -72q0 -26 -9 -50.5t-27 -44.5zM176 384
q-30 0 -56 -15t-41 -41t-15 -56q0 -7 4.5 -11.5t11.5 -4.5t11.5 4.5t4.5 11.5q0 33 23.5 56.5t56.5 23.5q7 0 11.5 4.5t4.5 11.5t-4.5 11.5t-11.5 4.5z" />
    <glyph glyph-name="exchange" unicode="&#xf0ec;" 
d="M508 264l-92 -92q-4 -4 -8.5 -4t-8.5 4l-7 7q-4 3 -4 8t4 9l61 60h-441q-5 0 -8.5 3.5t-3.5 8.5v8q0 5 3.5 8.5t8.5 3.5h441l-61 60q-4 4 -4 9t4 8l7 7q4 4 8.5 4t8.5 -4l92 -92q4 -3 4 -8t-4 -8zM4 104l92 -92q4 -4 8.5 -4t8.5 4l7 7q4 3 4 8t-4 9l-61 60h441
q5 0 8.5 3.5t3.5 8.5v8q0 5 -3.5 8.5t-8.5 3.5h-441l61 60q4 4 4 9t-4 8l-7 7q-4 4 -8.5 4t-8.5 -4l-92 -92q-4 -3 -4 -8t4 -8z" />
    <glyph glyph-name="cloud-download" unicode="&#xf0ed;" horiz-adv-x="640" 
d="M572 209q4 15 4 31q0 30 -15 56t-41 41t-56 15q-25 0 -48 -11q-24 35 -62 55t-82 20q-46 0 -86 -22.5t-64 -61t-26 -84.5q-43 -15 -69.5 -52.5t-26.5 -83.5q0 -39 19.5 -72t52.5 -52.5t72 -19.5h368q35 0 64.5 17t46.5 46.5t17 64.5t-18.5 65.5t-49.5 47.5zM512 0h-368
q-30 0 -56 15t-41 41t-15 56q0 42 28 73.5t69 37.5q-1 8 -1 17q0 39 19.5 72t52.5 52.5t72 19.5q45 0 81 -25t52 -65q24 26 58 26t57.5 -23.5t23.5 -56.5q0 -28 -17 -49q35 -6 58 -32.5t23 -62.5q0 -40 -28 -68t-68 -28zM405 194q-3 3 -8 3t-9 -3l-68 -69v151q0 5 -3.5 8.5
t-8.5 3.5h-8q-5 0 -8.5 -3.5t-3.5 -8.5v-151l-68 69q-4 3 -9 3t-8 -3l-6 -6q-3 -4 -3 -9t3 -8l98 -98q4 -4 9 -4t8 4l99 98q3 3 3 8t-3 9z" />
    <glyph glyph-name="cloud-upload" unicode="&#xf0ee;" horiz-adv-x="640" 
d="M313 280q-4 3 -9 3t-8 -3l-99 -99q-3 -3 -3 -8t3 -9l6 -5q3 -4 8 -4t9 4l68 68v-151q0 -5 3.5 -8.5t8.5 -3.5h8q5 0 8.5 3.5t3.5 8.5v151l68 -68q4 -4 9 -4t8 4l6 5q4 4 4 9t-4 8zM572 209q4 15 4 31q0 30 -15 56t-41 41t-56 15q-25 0 -48 -11q-24 35 -62 55t-82 20
q-46 0 -86 -22.5t-64 -61t-26 -84.5q-43 -15 -69.5 -52.5t-26.5 -83.5q0 -39 19.5 -72t52.5 -52.5t72 -19.5h368q35 0 64.5 17t46.5 46.5t17 64.5t-18.5 65.5t-49.5 47.5zM512 0h-368q-30 0 -56 15t-41 41t-15 56q0 42 28 73.5t69 37.5q-1 8 -1 17q0 39 19.5 72t52.5 52.5
t72 19.5q45 0 81 -25t52 -65q24 26 58 26t57.5 -23.5t23.5 -56.5q0 -28 -17 -49q35 -6 58 -32.5t23 -62.5q0 -40 -28 -68t-68 -28z" />
    <glyph glyph-name="suitcase" unicode="&#xf0f2;" 
d="M464 320h-112v48q0 20 -14 34t-34 14h-96q-20 0 -34 -14t-14 -34v-48h-112q-20 0 -34 -14t-14 -34v-256q0 -20 14 -34t34 -14h416q20 0 34 14t14 34v256q0 20 -14 34t-34 14zM192 368q0 7 4.5 11.5t11.5 4.5h96q7 0 11.5 -4.5t4.5 -11.5v-48h-128v48zM96 0h-48
q-7 0 -11.5 4.5t-4.5 11.5v256q0 7 4.5 11.5t11.5 4.5h48v-288zM384 0h-256v288h256v-288zM480 16q0 -7 -4.5 -11.5t-11.5 -4.5h-48v288h48q7 0 11.5 -4.5t4.5 -11.5v-256z" />
    <glyph glyph-name="bell" unicode="&#xf0f3;" horiz-adv-x="448" 
d="M224 -32q-13 0 -22.5 9.5t-9.5 22.5h-32q0 -26 19 -45t45 -19t45 19t19 45h-32q0 -13 -9.5 -22.5t-22.5 -9.5zM433 113q-25 24 -35 49q-14 36 -14 100q0 39 -19 72.5t-52 55t-73 24.5v18q0 7 -4.5 11.5t-11.5 4.5t-11.5 -4.5t-4.5 -11.5v-18q-40 -3 -73 -24.5t-52 -55
t-19 -72.5q0 -64 -14 -100q-10 -25 -35 -49q-11 -10 -14 -24t2.5 -27.5t17.5 -21.5t27 -8h352q15 0 27 8t17.5 21.5t2.5 27.5t-14 24zM400 64h-352q-11 0 -15 9.5t4 16.5q30 29 42 60q17 42 17 112q0 33 17 61t46.5 44.5t64.5 16.5t64.5 -16.5t46.5 -44.5t17 -61
q0 -70 17 -111q12 -32 42 -61q8 -7 4 -16.5t-15 -9.5z" />
    <glyph glyph-name="plus-square" unicode="&#xf0fe;" horiz-adv-x="448" 
d="M400 384q7 0 11.5 -4.5t4.5 -11.5v-352q0 -7 -4.5 -11.5t-11.5 -4.5h-352q-7 0 -11.5 4.5t-4.5 11.5v352q0 7 4.5 11.5t11.5 4.5h352zM400 416h-352q-20 0 -34 -14t-14 -34v-352q0 -20 14 -34t34 -14h352q20 0 34 14t14 34v352q0 20 -14 34t-34 14zM340 210h-98v98
q0 5 -3.5 8.5t-8.5 3.5h-12q-5 0 -8.5 -3.5t-3.5 -8.5v-98h-98q-5 0 -8.5 -3.5t-3.5 -8.5v-12q0 -5 3.5 -8.5t8.5 -3.5h98v-98q0 -5 3.5 -8.5t8.5 -3.5h12q5 0 8.5 3.5t3.5 8.5v98h98q5 0 8.5 3.5t3.5 8.5v12q0 5 -3.5 8.5t-8.5 3.5z" />
    <glyph glyph-name="angle-left" unicode="&#xf104;" horiz-adv-x="192" 
d="M25 201l118 116q3 3 8 3t9 -3l7 -8q4 -3 4 -8t-4 -9l-102 -100l102 -100q3 -4 3 -9t-3 -8l-7 -7q-4 -4 -9 -4t-8 4l-118 116q-3 3 -3 8t3 9z" />
    <glyph glyph-name="angle-right" unicode="&#xf105;" horiz-adv-x="192" 
d="M167 184l-118 -116q-3 -4 -8 -4t-9 4l-7 7q-4 3 -4 8t4 9l102 100l-102 100q-3 4 -3 9t3 8l7 8q4 3 9 3t8 -3l118 -116q3 -4 3 -9t-3 -9v1z" />
    <glyph glyph-name="angle-up" unicode="&#xf106;" horiz-adv-x="256" 
d="M137 263l116 -118q3 -3 3 -8t-3 -9l-8 -7q-3 -4 -8 -4t-9 4l-100 102l-100 -102q-4 -3 -9 -3t-8 3l-7 7q-4 4 -4 9t3 8l117 118q3 3 8 3t9 -3z" />
    <glyph glyph-name="angle-down" unicode="&#xf107;" horiz-adv-x="256" 
d="M120 121l-116 118q-4 3 -4 8t3 9l8 7q3 4 8 4t9 -4l100 -102l100 102q4 3 9 3t8 -3l8 -7q3 -4 3 -9t-3 -8l-116 -118q-4 -3 -9 -3t-9 3h1z" />
    <glyph glyph-name="location-arrow" unicode="&#xf124;" 
d="M462 448q-9 0 -17 -4l-416 -191q-23 -11 -27.5 -33.5t8.5 -41t38 -18.5h176v-176q0 -22 14.5 -35t34.5 -13q13 0 25 7t19 22l191 416q7 15 2 31t-18.5 26t-29.5 10zM479 394l-191 -416q-5 -10 -15 -10q-6 0 -11.5 4t-5.5 12v208h-208q-13 0 -16 13t10 19l415 191q2 1 5 1
q9 0 15 -9q5 -7 2 -13z" />
    <glyph glyph-name="question" unicode="&#xf128;" horiz-adv-x="384" 
d="M200 448q-56 0 -98 -23t-74 -70q-10 -16 -7 -35t18 -30l42 -32q16 -12 35.5 -9.5t31.5 17.5q16 21 24.5 26.5t21.5 5.5q8 0 16.5 -5t8.5 -12t-8 -12q-5 -3 -20 -10q-24 -10 -36 -17q-20 -13 -31 -31q-14 -22 -14 -53v-14q0 -12 5.5 -22t14.5 -17q-16 -13 -25 -32t-9 -41
q0 -40 28 -68t68 -28t68 28t28 68q0 22 -9 41t-25 32q9 7 14.5 17t5.5 22v5q5 3 18 11q24 14 37 24q22 18 34 40q15 28 15 64q0 44 -26 82q-25 36 -66.5 57t-85.5 21zM192 -32q-26 0 -45 19t-19 45t19 45t45 19t45 -19t19 -45t-19 -45t-45 -19zM242 154v-10q0 -7 -4.5 -11.5
t-11.5 -4.5h-68q-7 0 -11.5 4.5t-4.5 11.5v14q0 31 19 49q12 10 41 23q25 10 34 17q15 13 15 33q0 22 -19 37q-17 13 -39.5 13t-38.5 -11q-12 -9 -31 -33q-4 -5 -10.5 -6t-12.5 3l-42 32q-5 4 -6 10.5t3 11.5q26 39 60 58q36 21 85 21q36 0 70 -17t54 -45q22 -31 22 -66
q0 -39 -24 -66q-13 -16 -46 -35q-18 -10 -24 -15q-10 -9 -10 -18z" />
    <glyph glyph-name="info" unicode="&#xf129;" horiz-adv-x="256" 
d="M208 79v161q0 24 -19 38q16 14 25.5 33t9.5 41q0 40 -28 68t-68 28t-68 -28t-28 -68q0 -37 25 -64h-1q-20 0 -34 -14t-14 -34v-48q0 -18 11.5 -31t28.5 -16v-66q-17 -3 -28.5 -16t-11.5 -31v-48q0 -20 14 -34t34 -14h144q20 0 34 14t14 34v48q0 18 -11.5 31t-28.5 16z
M128 416q27 0 45.5 -18.5t18.5 -45.5t-18.5 -45.5t-45.5 -18.5t-45.5 18.5t-18.5 45.5t18.5 45.5t45.5 18.5zM216 -16q0 -7 -4.5 -11.5t-11.5 -4.5h-144q-7 0 -11.5 4.5t-4.5 11.5v48q0 7 4.5 11.5t11.5 4.5h24v128h-24q-7 0 -11.5 4.5t-4.5 11.5v48q0 7 4.5 11.5t11.5 4.5
h104q7 0 11.5 -4.5t4.5 -11.5v-192h24q7 0 11.5 -4.5t4.5 -11.5v-48z" />
    <glyph glyph-name="exclamation" unicode="&#xf12a;" horiz-adv-x="192" 
d="M139 416q5 0 9 -4t3 -9l-14 -264q-1 -4 -4.5 -7.5t-7.5 -3.5h-58q-4 0 -7.5 3.5t-4.5 7.5l-14 264q-1 5 3 9t9 4h86zM96 96q26 0 45 -19t19 -45t-19 -45t-45 -19t-45 19t-19 45t19 45t45 19zM139 448h-86q-19 0 -32 -14t-12 -32l14 -264q1 -18 14 -30q-17 -14 -27 -33.5
t-10 -42.5q0 -40 28 -68t68 -28t68 28t28 68q0 23 -10 42.5t-27 33.5q13 12 14 30l14 264q1 18 -12 32t-32 14z" />
    <glyph glyph-name="microphone" unicode="&#xf130;" horiz-adv-x="320" 
d="M160 96q40 0 68 28t28 68v160q0 40 -28 68t-68 28t-68 -28t-28 -68v-160q0 -40 28 -68t68 -28zM96 352q0 26 19 45t45 19t45 -19t19 -45v-160q0 -26 -19 -45t-45 -19t-45 19t-19 45v160zM312 256h-16q-3 0 -5.5 -2.5t-2.5 -5.5v-56q0 -36 -18.5 -66.5t-50 -47
t-68.5 -14.5q-33 3 -60.5 21.5t-43 48t-15.5 63.5v51q0 3 -2.5 5.5t-5.5 2.5h-16q-3 0 -5.5 -2.5t-2.5 -5.5v-50q0 -42 19 -78t52 -59.5t73 -27.5v-65h-72q-3 0 -5.5 -2.5t-2.5 -5.5v-16q0 -3 2.5 -5.5t5.5 -2.5h176q3 0 5.5 2.5t2.5 5.5v16q0 3 -2.5 5.5t-5.5 2.5h-72v65
q40 4 73 26t52 57t19 76v56q0 3 -2.5 5.5t-5.5 2.5z" />
    <glyph glyph-name="microphone-slash" unicode="&#xf131;" horiz-adv-x="640" 
d="M637 -37l-614 483q-3 2 -6 2t-5 -3l-10 -13q-2 -2 -2 -5.5t3 -5.5l614 -483q3 -2 6 -2t5 3l10 13q2 2 2 5.5t-3 5.5zM480 192v56q0 3 -2.5 5.5t-5.5 2.5h-16q-3 0 -5.5 -2.5t-2.5 -5.5v-56q0 -16 -6 -35l27 -22q11 28 11 57zM256 352q0 26 19 45t45 19t45 -19t19 -45
v-149l31 -24v1q1 8 1 12v160q0 40 -28 68t-68 28t-68 -28t-28 -68v-23l32 -25v48zM320 96q18 0 35 7l-32 25h-3q-23 0 -41 15t-22 37l-33 26v-14q0 -40 28 -68t68 -28zM408 -32h-72v65q39 4 74 27l-27 21q-34 -19 -72 -17q-33 3 -60.5 21.5t-43 48t-15.5 63.5v35l-28 22
q-4 -2 -4 -6v-50q0 -42 19 -78t52 -59.5t73 -27.5v-65h-72q-3 0 -5.5 -2.5t-2.5 -5.5v-16q0 -3 2.5 -5.5t5.5 -2.5h176q3 0 5.5 2.5t2.5 5.5v16q0 3 -2.5 5.5t-5.5 2.5z" />
    <glyph glyph-name="shield" unicode="&#xf132;" 
d="M467 364l-192 80q-19 8 -37 0l-192 -80q-14 -5 -22 -17t-8 -27q0 -94 34 -177q30 -74 83 -129q48 -51 105 -74q18 -8 36 0q50 20 96 65q55 54 88 126q38 86 38 189q0 15 -8 27t-22 17h1zM262 -31q-6 -2 -12 0q-51 20 -96 69q-48 52 -75 121q-31 77 -31 161q0 11 10 15
l192 80q6 2 12 0l192 -80q10 -4 10 -15q0 -84 -31 -161q-27 -69 -75 -121q-45 -49 -96 -69z" />
    <glyph glyph-name="fire-extinguisher" unicode="&#xf134;" horiz-adv-x="448" 
d="M430 416l-160 -24q-15 -2 -14 -22v-2h-61q8 18 3.5 36.5t-19.5 31t-35.5 12.5t-35.5 -13t-19 -33t6 -38q-65 -14 -94 -86q-2 -6 0.5 -12t8.5 -8.5t12 0t9 8.5q13 34 35 50q18 14 45 18q15 3 49 2h16v-33q-34 -6 -57 -33.5t-23 -62.5v-247q0 -10 7 -17t17 -7h144
q10 0 17 7t7 17v248q0 35 -23 62t-57 33v33h48v-2q-1 -20 14 -22l160 -24q7 -1 12.5 4t5.5 12v96q0 7 -5.5 12t-12.5 4zM256 208v-240h-128v239q0 27 18.5 46t45.5 19v0q26 0 45 -19t19 -45zM144 416q10 0 17 -7t7 -17t-7 -17t-17 -7t-17 7t-7 17t7 17t17 7zM416 323
l-128 19v20l128 19v-58z" />
    <glyph glyph-name="rocket" unicode="&#xf135;" horiz-adv-x="511" 
d="M502 429q-2 7 -9 9q-28 7 -44 8q-14 2 -41 2q-88 0 -174 -96h-127q-9 0 -16.5 -4t-11.5 -12l-75 -128q-9 -16 0.5 -32t27.5 -16h83q-10 -21 -19 -45q-3 -7 3 -12l68 -68q5 -6 12 -3q23 9 45 19v-83q0 -19 16 -28t32 0l128 75q7 4 11.5 11.5t4.5 16.5v127q96 86 96 174
q0 27 -2 41q-1 16 -8 44zM32 192l75 128h101q-43 -56 -78 -128h-98zM256 -32v98q72 35 128 78v-101zM180 67l-49 49q27 68 65 129q46 76 95 119q59 52 117 52q22 0 32 -1q14 -1 34 -5q4 -20 5 -35q1 -9 1 -31q0 -58 -52 -117q-43 -49 -119 -95q-61 -38 -129 -65zM368 360
q-23 0 -39.5 -16.5t-16.5 -39.5t16.5 -39.5t39.5 -16.5t39.5 16.5t16.5 39.5t-16.5 39.5t-39.5 16.5zM368 280q-10 0 -17 7t-7 17t7 17t17 7t17 -7t7 -17t-7 -17t-17 -7z" />
    <glyph glyph-name="chevron-circle-left" unicode="&#xf137;" 
d="M504 192q0 67 -33.5 124t-90.5 90.5t-124 33.5t-124 -33.5t-90.5 -90.5t-33.5 -124t33.5 -124t90.5 -90.5t124 -33.5t124 33.5t90.5 90.5t33.5 124zM256 -24q-58 0 -108 29t-79 78.5t-29 108t29 108.5t78.5 79t108 29t108.5 -29t79 -78.5t29 -108t-29 -108.5t-78.5 -79
t-108.5 -29zM169 201l116 115q3 3 8 3t8 -3l8 -8q3 -3 3 -8t-3 -9l-100 -99l100 -99q3 -4 3 -9t-3 -9l-8 -7q-3 -3 -8 -3t-9 3l-115 115q-3 4 -3 9t3 9z" />
    <glyph glyph-name="chevron-circle-right" unicode="&#xf138;" 
d="M8 192q0 -67 33.5 -124t90.5 -90.5t124 -33.5t124 33.5t90.5 90.5t33.5 124t-33.5 124t-90.5 90.5t-124 33.5t-124 -33.5t-90.5 -90.5t-33.5 -124zM256 408q58 0 108 -29t79 -78.5t29 -108t-29 -108.5t-78.5 -79t-108 -29t-108.5 29t-79 78.5t-29 108t29 108.5t78.5 79
t108.5 29zM343 184l-115 -115q-4 -4 -9 -4t-8 4l-8 7q-3 3 -3 8t3 9l100 99l-99 100q-4 3 -4 8t3 8l8 8q3 3 8 3t9 -3l115 -115q3 -4 3 -9t-3 -9v1z" />
    <glyph glyph-name="chevron-circle-up" unicode="&#xf139;" 
d="M256 -56q67 0 124 33.5t90.5 90.5t33.5 124t-33.5 124t-90.5 90.5t-124 33.5t-124 -33.5t-90.5 -90.5t-33.5 -124t33.5 -124t90.5 -90.5t124 -33.5zM40 192q0 58 29 108t78.5 79t108 29t108.5 -29t79 -78.5t29 -108t-29 -108.5t-78.5 -79t-108 -29t-108.5 29t-79 78.5
t-29 108.5zM265 279l115 -115q3 -4 3 -9t-3 -9l-8 -7q-3 -3 -8 -3t-9 3l-99 100l-99 -99q-4 -4 -9 -4t-9 4l-7 7q-3 3 -3 8t3 9l115 115q4 3 9 3t9 -3z" />
    <glyph glyph-name="chevron-circle-down" unicode="&#xf13a;" 
d="M256 440q-67 0 -124 -33.5t-90.5 -90.5t-33.5 -124t33.5 -124t90.5 -90.5t124 -33.5t124 33.5t90.5 90.5t33.5 124t-33.5 124t-90.5 90.5t-124 33.5zM472 192q0 -58 -29 -108t-78.5 -79t-108 -29t-108.5 29t-79 78.5t-29 108t29 108.5t78.5 79t108 29t108.5 -29t79 -78.5
t29 -108.5zM265 105l115 116q3 3 3 8t-3 9l-8 7q-3 3 -8 3t-9 -3l-99 -100l-99 100q-4 3 -9 3t-9 -3l-7 -8q-3 -3 -3 -8t3 -9l115 -115q4 -3 9 -3t9 3z" />
    <glyph glyph-name="anchor" unicode="&#xf13d;" horiz-adv-x="576" 
d="M504 184q-3 3 -8 3t-8 -3l-68 -68q-5 -5 -2 -12.5t11 -7.5h49q-13 -52 -61 -87.5t-113 -39.5v287h52q5 0 8.5 3.5t3.5 8.5v8q0 5 -3.5 8.5t-8.5 3.5h-52v34q22 6 35.5 24t12.5 42t-18.5 41.5t-42.5 18.5q-27 1 -47 -18t-20 -46q0 -22 13.5 -39.5t34.5 -22.5v-34h-52
q-5 0 -8.5 -3.5t-3.5 -8.5v-8q0 -5 3.5 -8.5t8.5 -3.5h52v-287q-65 4 -113 39.5t-61 87.5h49q8 0 11 7.5t-2 12.5l-68 68q-3 3 -8 3t-8 -3l-68 -68q-5 -5 -2 -12.5t11 -7.5h52q9 -47 43 -84q32 -36 79.5 -56t101.5 -20t101.5 21t79.5 57.5t41 81.5h52q8 0 11 7.5t-2 12.5z
M256 384q0 13 9.5 22.5t22.5 9.5t22.5 -9.5t9.5 -22.5t-9.5 -22.5t-22.5 -9.5t-22.5 9.5t-9.5 22.5zM61 128l19 19l19 -19h-38zM477 128l19 19l19 -19h-38z" />
    <glyph glyph-name="unlock-alt" unicode="&#xf13e;" horiz-adv-x="384" 
d="M336 192h-240v96q0 58 22 90q24 38 74 38t74 -38q22 -32 22 -90v-20q0 -5 3.5 -8.5t8.5 -3.5h8q5 0 8.5 3.5t3.5 8.5v19q0 70 -31 113q-33 48 -96.5 48t-97.5 -47q-31 -42 -31 -113v-96h-16q-20 0 -34 -14t-14 -34v-160q0 -20 14 -34t34 -14h288q20 0 34 14t14 34v160
q0 20 -14 34t-34 14zM352 -16q0 -7 -4.5 -11.5t-11.5 -4.5h-288q-7 0 -11.5 4.5t-4.5 11.5v160q0 7 4.5 11.5t11.5 4.5h288q7 0 11.5 -4.5t4.5 -11.5v-160zM192 16q-7 0 -11.5 4.5t-4.5 11.5v64q0 7 4.5 11.5t11.5 4.5t11.5 -4.5t4.5 -11.5v-64q0 -7 -4.5 -11.5t-11.5 -4.5z
" />
    <glyph glyph-name="bullseye" unicode="&#xf140;" horiz-adv-x="496" 
d="M248 356q-45 0 -82.5 -22t-59.5 -59.5t-22 -82.5t22 -82.5t59.5 -59.5t82.5 -22t82.5 22t59.5 59.5t22 82.5t-22 82.5t-59.5 59.5t-82.5 22zM248 60q-36 0 -66 18t-48 48t-18 66t18 66t48 48t66 18t66 -18t48 -48t18 -66t-18 -66t-48 -48t-66 -18zM248 272
q-33 0 -56.5 -23.5t-23.5 -56.5t23.5 -56.5t56.5 -23.5t56.5 23.5t23.5 56.5t-23.5 56.5t-56.5 23.5zM248 144q-20 0 -34 14t-14 34t14 34t34 14t34 -14t14 -34t-14 -34t-34 -14zM248 440q-67 0 -124 -33.5t-90.5 -90.5t-33.5 -124t33.5 -124t90.5 -90.5t124 -33.5t124 33.5
t90.5 90.5t33.5 124t-33.5 124t-90.5 90.5t-124 33.5zM248 -24q-59 0 -108.5 29t-78.5 78.5t-29 108.5t29 108.5t78.5 78.5t108.5 29t108.5 -29t78.5 -78.5t29 -108.5t-29 -108.5t-78.5 -78.5t-108.5 -29z" />
    <glyph glyph-name="ellipsis-h" unicode="&#xf141;" horiz-adv-x="320" 
d="M192 192q0 -13 -9.5 -22.5t-22.5 -9.5t-22.5 9.5t-9.5 22.5t9.5 22.5t22.5 9.5t22.5 -9.5t9.5 -22.5zM280 224q-13 0 -22.5 -9.5t-9.5 -22.5t9.5 -22.5t22.5 -9.5t22.5 9.5t9.5 22.5t-9.5 22.5t-22.5 9.5zM40 224q-13 0 -22.5 -9.5t-9.5 -22.5t9.5 -22.5t22.5 -9.5
t22.5 9.5t9.5 22.5t-9.5 22.5t-22.5 9.5z" />
    <glyph glyph-name="ellipsis-v" unicode="&#xf142;" horiz-adv-x="64" 
d="M32 224q13 0 22.5 -9.5t9.5 -22.5t-9.5 -22.5t-22.5 -9.5t-22.5 9.5t-9.5 22.5t9.5 22.5t22.5 9.5zM0 312q0 -13 9.5 -22.5t22.5 -9.5t22.5 9.5t9.5 22.5t-9.5 22.5t-22.5 9.5t-22.5 -9.5t-9.5 -22.5zM0 72q0 -13 9.5 -22.5t22.5 -9.5t22.5 9.5t9.5 22.5t-9.5 22.5
t-22.5 9.5t-22.5 -9.5t-9.5 -22.5z" />
    <glyph glyph-name="rss-square" unicode="&#xf143;" horiz-adv-x="448" 
d="M400 416h-352q-20 0 -34 -14t-14 -34v-352q0 -20 14 -34t34 -14h352q20 0 34 14t14 34v352q0 20 -14 34t-34 14zM416 16q0 -7 -4.5 -11.5t-11.5 -4.5h-352q-7 0 -11.5 4.5t-4.5 11.5v352q0 7 4.5 11.5t11.5 4.5h352q7 0 11.5 -4.5t4.5 -11.5v-352zM144 128q7 0 11.5 -4.5
t4.5 -11.5t-4.5 -11.5t-11.5 -4.5t-11.5 4.5t-4.5 11.5t4.5 11.5t11.5 4.5zM144 160q-20 0 -34 -14t-14 -34t14 -34t34 -14t34 14t14 34t-14 34t-34 14zM340 64h-8q-5 0 -8.5 3.5t-3.5 7.5q-3 57 -32 104.5t-76.5 76.5t-104.5 32q-4 0 -7.5 3.5t-3.5 8.5v8q0 5 3.5 8.5
t9.5 3.5q64 -3 119 -36t88 -88t36 -119q0 -6 -3.5 -9.5t-8.5 -3.5zM268 64h-8q-5 0 -8.5 3t-3.5 8q-3 37 -22 68.5t-50.5 50.5t-68.5 22q-5 0 -8 3.5t-3 8.5v8q0 5 4 8.5t9 3.5q45 -3 83 -26.5t61.5 -61.5t26.5 -83q0 -5 -3.5 -9t-8.5 -4z" />
    <glyph glyph-name="play-circle" unicode="&#xf144;" 
d="M256 -56q67 0 124 33.5t90.5 90.5t33.5 124t-33.5 124t-90.5 90.5t-124 33.5t-124 -33.5t-90.5 -90.5t-33.5 -124t33.5 -124t90.5 -90.5t124 -33.5zM40 192q0 58 29 108t78.5 79t108 29t108.5 -29t79 -78.5t29 -108t-29 -108.5t-78.5 -79t-108 -29t-108.5 29t-79 78.5
t-29 108.5zM372 210l-176 107q-12 7 -24 0t-12 -21v-208q0 -14 12 -21t24 0l176 101q12 7 12 21t-12 21zM192 112v159q0 4 3 5.5t6 -0.5l135 -81q3 -2 2.5 -5.5t-2.5 -5.5l-135 -77q-3 -2 -6 0t-3 5z" />
    <glyph glyph-name="ticket" unicode="&#xf145;" horiz-adv-x="576" 
d="M544 224h32v112q0 20 -14 34t-34 14h-480q-20 0 -34 -14t-14 -34v-112h32q13 0 22.5 -9.5t9.5 -22.5t-9.5 -22.5t-22.5 -9.5h-32v-112q0 -20 14 -34t34 -14h480q20 0 34 14t14 34v112h-32q-13 0 -22.5 9.5t-9.5 22.5t9.5 22.5t22.5 9.5zM544 128v-80q0 -7 -4.5 -11.5
t-11.5 -4.5h-480q-7 0 -11.5 4.5t-4.5 11.5v80q26 0 45 19t19 45t-19 45t-45 19v80q0 7 4.5 11.5t11.5 4.5h480q7 0 11.5 -4.5t4.5 -11.5v-80q-26 0 -45 -19t-19 -45t19 -45t45 -19z" />
    <glyph glyph-name="minus-square" unicode="&#xf146;" horiz-adv-x="448" 
d="M400 384q7 0 11.5 -4.5t4.5 -11.5v-352q0 -7 -4.5 -11.5t-11.5 -4.5h-352q-7 0 -11.5 4.5t-4.5 11.5v352q0 7 4.5 11.5t11.5 4.5h352zM400 416h-352q-20 0 -34 -14t-14 -34v-352q0 -20 14 -34t34 -14h352q20 0 34 14t14 34v352q0 20 -14 34t-34 14zM340 174q5 0 8.5 3.5
t3.5 8.5v12q0 5 -3.5 8.5t-8.5 3.5h-232q-5 0 -8.5 -3.5t-3.5 -8.5v-12q0 -5 3.5 -8.5t8.5 -3.5h232z" />
    <glyph glyph-name="level-up" unicode="&#xf148;" horiz-adv-x="256" 
d="M252 345l-99 99q-4 4 -9 4t-9 -4l-99 -99q-4 -4 -4 -9t4 -9l8 -8q4 -4 9 -4t8 4l65 65v-412h-102q-5 0 -8 -4l-12 -12q-6 -5 -3 -12.5t11 -7.5h126q10 0 17 7t7 17v424l65 -65q3 -4 8 -4t9 4l8 8q4 4 4 9t-4 9z" />
    <glyph glyph-name="level-down" unicode="&#xf149;" horiz-adv-x="256" 
d="M252 39l-99 -99q-4 -4 -9 -4t-9 4l-99 99q-4 4 -4 9t4 9l8 8q4 4 9 4t8 -4l65 -65v412h-102q-5 0 -8 4l-12 12q-6 5 -3 12.5t11 7.5h126q10 0 17 -7t7 -17v-424l65 65q3 4 8 4t9 -4l8 -8q4 -4 4 -9t-4 -9z" />
    <glyph glyph-name="check-square" unicode="&#xf14a;" horiz-adv-x="448" 
d="M400 416h-352q-20 0 -34 -14t-14 -34v-352q0 -20 14 -34t34 -14h352q20 0 34 14t14 34v352q0 20 -14 34t-34 14zM400 384q7 0 11.5 -4.5t4.5 -11.5v-352q0 -7 -4.5 -11.5t-11.5 -4.5h-352q-7 0 -11.5 4.5t-4.5 11.5v352q0 7 4.5 11.5t11.5 4.5h352zM366 286l-9 8
q-3 4 -8 4t-9 -4l-163 -162l-69 70q-4 3 -9 3t-8 -3l-9 -9q-3 -3 -3 -8t3 -9l86 -86q4 -4 9 -4t8 4l181 179q3 3 3 8t-3 9z" />
    <glyph glyph-name="pen-square" unicode="&#xf14b;" horiz-adv-x="448" 
d="M400 416h-352q-20 0 -34 -14t-14 -34v-352q0 -20 14 -34t34 -14h352q20 0 34 14t14 34v352q0 20 -14 34t-34 14zM416 16q0 -7 -4.5 -11.5t-11.5 -4.5h-352q-7 0 -11.5 4.5t-4.5 11.5v352q0 7 4.5 11.5t11.5 4.5h352q7 0 11.5 -4.5t4.5 -11.5v-352zM349 340
q-12 12 -28.5 12t-28.5 -12l-220 -220l-8 -71q-1 -8 4 -13t13 -4l71 8l220 220q12 12 12 28.5t-12 28.5zM137 71l-39 -5l5 39l162 163l35 -35zM350 283l-27 -27l-35 35l27 27q2 2 5.5 2t5.5 -2l24 -24q2 -2 2 -5.5t-2 -5.5z" />
    <glyph glyph-name="external-link-square" unicode="&#xf14c;" horiz-adv-x="448" 
d="M400 416h-352q-20 0 -34 -14t-14 -34v-352q0 -20 14 -34t34 -14h352q20 0 34 14t14 34v352q0 20 -14 34t-34 14zM416 16q0 -7 -4.5 -11.5t-11.5 -4.5h-352q-7 0 -11.5 4.5t-4.5 11.5v352q0 7 4.5 11.5t11.5 4.5h352q7 0 11.5 -4.5t4.5 -11.5v-352zM100 73q-4 4 -4 9t4 8
l195 195l-1 1h-90q-5 0 -8.5 3.5t-3.5 8.5v10q0 5 3.5 8.5t8.5 3.5h136q5 0 8.5 -3.5t3.5 -8.5v-136q0 -5 -3.5 -8.5t-8.5 -3.5h-10q-5 0 -8.5 3.5t-3.5 8.5v90l-1 1l-195 -195q-3 -4 -8 -4t-9 4z" />
    <glyph glyph-name="share-square" unicode="&#xf14d;" horiz-adv-x="576" 
d="M567 279l-160 160q-10 9 -23 9t-22.5 -9t-9.5 -23v-73q-122 -3 -185 -38q-79 -45 -79 -143q0 -56 29 -102q19 -31 50 -54q12 -8 25.5 -5t21 14.5t3.5 25.5q-14 51 -5.5 77.5t42.5 37.5q31 10 98 11v-71q0 -14 9.5 -23t22.5 -9t23 9l160 160q9 10 9 23t-9 23zM384 96v104
q-83 0 -124 -10q-54 -13 -73 -47q-21 -38 -1 -111q-28 21 -45 49q-21 36 -21 81q0 63 39 98q33 30 98 42q48 9 127 10v104l160 -160zM421 44q3 2 7 5q6 6 13 2.5t7 -10.5v-57q0 -20 -14 -34t-34 -14h-352q-20 0 -34 14t-14 34v352q0 20 14 34t34 14h172q5 0 8.5 -3.5t3.5 -8
t-2.5 -7.5t-6.5 -4q-15 -4 -27 -8q-2 -1 -4 -1h-144q-7 0 -11.5 -4.5t-4.5 -11.5v-352q0 -7 4.5 -11.5t11.5 -4.5h352q7 0 11.5 4.5t4.5 11.5v50q0 6 5 10z" />
    <glyph glyph-name="compass" unicode="&#xf14e;" horiz-adv-x="496" 
d="M265 175q7 7 7 17t-7 17t-17 7t-17 -7t-7 -17t7 -17t17 -7t17 7zM351 323q-3 0 -6 -1l-155 -56q-12 -4 -16 -16l-56 -155q-4 -11 5 -22.5t22 -11.5q3 0 6 1l155 56q12 4 16 16l56 155q4 11 -5 22.5t-22 11.5zM293 147l-140 -50l50 140l140 50zM248 440q-67 0 -124 -33.5
t-90.5 -90.5t-33.5 -124t33.5 -124t90.5 -90.5t124 -33.5t124 33.5t90.5 90.5t33.5 124t-33.5 124t-90.5 90.5t-124 33.5zM248 -24q-59 0 -108.5 29t-78.5 78.5t-29 108.5t29 108.5t78.5 78.5t108.5 29t108.5 -29t78.5 -78.5t29 -108.5t-29 -108.5t-78.5 -78.5t-108.5 -29z
" />
    <glyph glyph-name="caret-square-down" unicode="&#xf150;" horiz-adv-x="448" 
d="M400 416h-352q-20 0 -34 -14t-14 -34v-352q0 -20 14 -34t34 -14h352q20 0 34 14t14 34v352q0 20 -14 34t-34 14zM416 16q0 -7 -4.5 -11.5t-11.5 -4.5h-352q-7 0 -11.5 4.5t-4.5 11.5v352q0 7 4.5 11.5t11.5 4.5h352q7 0 11.5 -4.5t4.5 -11.5v-352zM320 224l-96 -96
l-96 96h192zM128 256q-14 0 -23 -9.5t-9 -22.5t9 -23l96 -96q10 -9 23 -9t23 9l96 96q9 10 9 23t-9 22.5t-23 9.5h-192z" />
    <glyph glyph-name="caret-square-up" unicode="&#xf151;" horiz-adv-x="448" 
d="M48 -32h352q20 0 34 14t14 34v352q0 20 -14 34t-34 14h-352q-20 0 -34 -14t-14 -34v-352q0 -20 14 -34t34 -14zM32 368q0 7 4.5 11.5t11.5 4.5h352q7 0 11.5 -4.5t4.5 -11.5v-352q0 -7 -4.5 -11.5t-11.5 -4.5h-352q-7 0 -11.5 4.5t-4.5 11.5v352zM128 160l96 96l96 -96
h-192zM320 128q14 0 23 9.5t9 22.5t-9 23l-96 96q-10 9 -23 9t-23 -9l-96 -96q-9 -10 -9 -23t9 -22.5t23 -9.5h192z" />
    <glyph glyph-name="caret-square-right" unicode="&#xf152;" horiz-adv-x="448" 
d="M0 368v-352q0 -20 14 -34t34 -14h352q20 0 34 14t14 34v352q0 20 -14 34t-34 14h-352q-20 0 -34 -14t-14 -34zM400 384q7 0 11.5 -4.5t4.5 -11.5v-352q0 -7 -4.5 -11.5t-11.5 -4.5h-352q-7 0 -11.5 4.5t-4.5 11.5v352q0 7 4.5 11.5t11.5 4.5h352zM192 288l96 -96l-96 -96
v192zM160 96q0 -14 9.5 -23t22.5 -9t23 9l96 96q9 10 9 23t-9 23l-96 96q-10 9 -23 9t-22.5 -9t-9.5 -23v-192z" />
    <glyph glyph-name="euro-sign" unicode="&#xf153;" horiz-adv-x="320" 
d="M304 4q-2 5 -6 7.5t-9 1.5q-22 -6 -44 -6q-60 0 -103 32.5t-58 88.5h156q4 0 7.5 2.5t3.5 7.5l2 8q1 5 -2.5 9.5t-9.5 4.5h-163q-3 34 0 64h179q4 0 7.5 2.5t4.5 7.5l1 8q1 5 -2.5 9.5t-9.5 4.5h-173q16 54 58.5 87.5t101.5 33.5q18 0 37 -5q5 -1 9 2t5 7l4 16
q1 5 -1.5 9t-7.5 5q-23 5 -46 5q-75 0 -131 -45t-75 -115h-27q-5 0 -8.5 -3.5t-3.5 -8.5v-8q0 -5 3.5 -8.5t8.5 -3.5h22q-2 -12 -2 -33q0 -19 1 -31h-21q-5 0 -8.5 -3.5t-3.5 -8.5v-8q0 -5 3.5 -8.5t8.5 -3.5h26q16 -73 72.5 -116.5t134.5 -43.5q27 0 53 6q5 1 7.5 5.5
t1.5 9.5z" />
    <glyph glyph-name="pound-sign" unicode="&#xf154;" horiz-adv-x="320" 
d="M308 80h-16q-5 0 -8.5 -3.5t-3.5 -8.5v-62h-182v154h106q5 0 8.5 3.5t3.5 8.5v8q0 5 -3.5 8.5t-8.5 3.5h-106v106q0 33 23 55.5t62 22.5q33 0 64 -20q4 -3 8.5 -2t7.5 4l10 13q4 4 3 9.5t-5 8.5q-41 27 -88 27q-37 0 -66.5 -15t-46 -41.5t-16.5 -59.5v-108h-34
q-5 0 -8.5 -3.5t-3.5 -8.5v-8q0 -5 3.5 -8.5t8.5 -3.5h34v-155h-42q-5 0 -8.5 -3.5t-3.5 -8.5v-13q0 -5 3.5 -8.5t8.5 -3.5h296q5 0 8.5 3.5t3.5 8.5v88q0 5 -3.5 8.5t-8.5 3.5z" />
    <glyph glyph-name="dollar-sign" unicode="&#xf155;" horiz-adv-x="256" 
d="M192 189l-118 37q-19 6 -30.5 23t-11.5 39q0 26 16.5 45t40.5 19h74q34 0 60 -25q2 -2 5.5 -2t5.5 2l12 11q2 2 2.5 5.5t-2.5 6.5q-17 16 -38.5 25t-44.5 9h-19v56q0 3 -2.5 5.5t-5.5 2.5h-16q-3 0 -5.5 -2.5t-2.5 -5.5v-56h-23q-37 0 -63 -28t-26 -68q0 -32 18 -58
t46 -35l118 -37q19 -6 30.5 -23t11.5 -39q0 -26 -16.5 -45t-40.5 -19h-74q-34 0 -60 24q-2 3 -5.5 3t-5.5 -2l-12 -11q-2 -2 -2 -5.5t2 -6.5q17 -16 38.5 -25t44.5 -9h19v-56q0 -3 2.5 -5.5t5.5 -2.5h16q3 0 5.5 2.5t2.5 5.5v56h23q37 0 63 28t26 68q0 32 -18 58t-46 35z
" />
    <glyph glyph-name="rupee-sign" unicode="&#xf156;" horiz-adv-x="320" 
d="M320 388v16q0 5 -3.5 8.5t-8.5 3.5h-296q-5 0 -8.5 -3.5t-3.5 -8.5v-16q0 -5 3.5 -8.5t8.5 -3.5h73q35 0 59.5 -14.5t33.5 -41.5h-166q-5 0 -8.5 -3.5t-3.5 -8.5v-16q0 -5 3.5 -8.5t8.5 -3.5h170q-3 -37 -29 -58.5t-69 -21.5h-72q-5 0 -8.5 -3.5t-3.5 -8.5v-15q0 -5 3 -8
l175 -193q4 -4 9 -4h22q8 0 11 7t-2 13l-156 172h24q58 0 96.5 32.5t41.5 87.5h84q5 0 8.5 3.5t3.5 8.5v16q0 5 -3.5 8.5t-8.5 3.5h-87q-8 33 -30 56h117q5 0 8.5 3.5t3.5 8.5z" />
    <glyph glyph-name="yen-sign" unicode="&#xf157;" horiz-adv-x="320" 
d="M308 416h-23q-6 0 -10 -6l-87 -153q-14 -26 -28 -57h-1l-9 19q-10 22 -18 38l-87 153q-3 6 -10 6h-23q-7 0 -10.5 -6t0.5 -12l99 -174h-57q-5 0 -8.5 -3.5t-3.5 -8.5v-8q0 -5 3.5 -8.5t8.5 -3.5h75l19 -32v-32h-94q-5 0 -8.5 -3.5t-3.5 -8.5v-8q0 -5 3.5 -8.5t8.5 -3.5
h94v-116q0 -5 3.5 -8.5t8.5 -3.5h21q5 0 8.5 3.5t3.5 8.5v116h93q5 0 8.5 3.5t3.5 8.5v8q0 5 -3.5 8.5t-8.5 3.5h-93v32l17 32h76q5 0 8.5 3.5t3.5 8.5v8q0 5 -3.5 8.5t-8.5 3.5h-58l100 174q4 6 0.5 12t-10.5 6z" />
    <glyph glyph-name="ruble-sign" unicode="&#xf158;" horiz-adv-x="384" 
d="M246 160q61 0 99.5 35.5t38.5 93.5t-38.5 92.5t-99.5 34.5h-138q-5 0 -8.5 -3.5t-3.5 -8.5v-204h-84q-5 0 -8.5 -3.5t-3.5 -8.5v-16q0 -5 3.5 -8.5t8.5 -3.5h84v-58h-84q-5 0 -8.5 -3.5t-3.5 -8.5v-14q0 -5 3.5 -8.5t8.5 -3.5h84v-84q0 -5 3.5 -8.5t8.5 -3.5h20
q5 0 8.5 3.5t3.5 8.5v84h168q5 0 8.5 3.5t3.5 8.5v14q0 5 -3.5 8.5t-8.5 3.5h-168v58h106zM140 376h105q45 0 71.5 -23t26.5 -64t-27 -65t-72 -24h-104v176z" />
    <glyph glyph-name="won-sign" unicode="&#xf159;" horiz-adv-x="576" 
d="M564 288q5 0 8.5 3.5t3.5 8.5v16q0 5 -3.5 8.5t-8.5 3.5h-54l17 72q2 6 -1.5 10.5t-9.5 4.5h-17q-4 0 -7 -2.5t-4 -6.5l-18 -78h-143l-19 78q-1 4 -4 6.5t-7 2.5h-19q-4 0 -7.5 -2.5t-4.5 -6.5l-19 -78h-140l-18 78q-1 4 -4 6.5t-7 2.5h-17q-5 0 -9 -4.5t-2 -10.5l16 -72
h-54q-5 0 -8.5 -3.5t-3.5 -8.5v-16q0 -5 3.5 -8.5t8.5 -3.5h64l13 -56h-77q-5 0 -8.5 -3.5t-3.5 -8.5v-16q0 -5 3.5 -8.5t8.5 -3.5h86l50 -215q1 -4 4 -6.5t7 -2.5h29q4 0 7 2.5t4 6.5l52 215h72l52 -215q1 -4 4 -6.5t8 -2.5h28q4 0 7.5 2.5t4.5 6.5l51 215h86q5 0 8.5 3.5
t3.5 8.5v16q0 5 -3.5 8.5t-8.5 3.5h-77l14 56h63zM287 350h1l4 -22h-9zM116 288h121l-13 -56h-96zM184 68q-4 -15 -8 -40l-1 -8h-1l-3 15q-3 19 -6 33l-28 124h77zM261 232l12 51l2 5h25l13 -56h-52zM410 68q-6 -23 -9 -48h-2l-1 8q-4 25 -8 40l-30 124h78zM448 232h-98
l-13 56h124z" />
    <glyph glyph-name="file" unicode="&#xf15b;" horiz-adv-x="384" 
d="M370 350l-84 84q-14 14 -34 14h-204q-20 0 -34 -14t-14 -34v-416q0 -20 14 -34t34 -14h288q20 0 34 14t14 34v332q0 20 -14 34zM347 327q3 -3 5 -7h-96v96q4 -2 7 -5zM336 -32h-288q-7 0 -11.5 4.5t-4.5 11.5v416q0 7 4.5 11.5t11.5 4.5h176v-104q0 -10 7 -17t17 -7h104
v-304q0 -7 -4.5 -11.5t-11.5 -4.5z" />
    <glyph glyph-name="file-alt" unicode="&#xf15c;" horiz-adv-x="384" 
d="M370 350l-84 84q-14 14 -34 14h-204q-20 0 -34 -14t-14 -34v-416q0 -20 14 -34t34 -14h288q20 0 34 14t14 34v332q0 20 -14 34zM347 327q3 -3 5 -7h-96v96q4 -2 7 -5zM336 -32h-288q-7 0 -11.5 4.5t-4.5 11.5v416q0 7 4.5 11.5t11.5 4.5h176v-104q0 -10 7 -17t17 -7h104
v-304q0 -7 -4.5 -11.5t-11.5 -4.5zM288 212v-8q0 -5 -3.5 -8.5t-8.5 -3.5h-168q-5 0 -8.5 3.5t-3.5 8.5v8q0 5 3.5 8.5t8.5 3.5h168q5 0 8.5 -3.5t3.5 -8.5zM288 148v-8q0 -5 -3.5 -8.5t-8.5 -3.5h-168q-5 0 -8.5 3.5t-3.5 8.5v8q0 5 3.5 8.5t8.5 3.5h168q5 0 8.5 -3.5
t3.5 -8.5zM288 84v-8q0 -5 -3.5 -8.5t-8.5 -3.5h-168q-5 0 -8.5 3.5t-3.5 8.5v8q0 5 3.5 8.5t8.5 3.5h168q5 0 8.5 -3.5t3.5 -8.5z" />
    <glyph glyph-name="sort-alpha-down" unicode="&#xf15d;" horiz-adv-x="448" 
d="M204 56l-84 -84q-3 -4 -8 -4t-8 4l-84 84q-4 4 -4 8.5t4 8.5l7 7q3 4 8 4t9 -4l51 -52v376q0 5 3.5 8.5t8.5 3.5h10q5 0 8.5 -3.5t3.5 -8.5v-376l51 52q4 4 9 4t8 -4l7 -7q4 -4 4 -8.5t-4 -8.5zM305 276h62l15 -44q3 -8 11 -8h12q6 0 9.5 5t1.5 11l-60 168q-3 8 -12 8
h-16q-9 0 -12 -8l-60 -168q-2 -6 1.5 -11t9.5 -5h11q9 0 12 8zM315 307l18 52l3 8l3 -8l17 -52h-41zM312 0v1q3 4 42 60l51 73q2 3 2 6v8q0 5 -3.5 8.5t-8.5 3.5h-114q-5 0 -8.5 -3.5t-3.5 -8.5v-8q0 -5 3.5 -8.5t8.5 -3.5h78l-93 -133q-2 -3 -2 -7v-8q0 -5 3.5 -8.5
t8.5 -3.5h120q5 0 8.5 3.5t3.5 8.5v8q0 5 -3.5 8.5t-8.5 3.5h-84z" />
    <glyph glyph-name="sort-alpha-up" unicode="&#xf15e;" horiz-adv-x="448" 
d="M20 328l84 84q3 4 8 4t8 -4l84 -84q4 -4 4 -8.5t-4 -8.5l-7 -7q-3 -4 -8 -4t-9 4l-51 52v-376q0 -5 -3.5 -8.5t-8.5 -3.5h-10q-5 0 -8.5 3.5t-3.5 8.5v376l-51 -52q-4 -4 -9 -4t-8 4l-7 7q-4 4 -4 8.5t4 8.5zM305 276h62l15 -44q3 -8 11 -8h12q6 0 9.5 5t1.5 11l-60 168
q-3 8 -12 8h-16q-9 0 -12 -8l-60 -168q-2 -6 1.5 -11t9.5 -5h11q9 0 12 8zM315 307l18 52l3 8l3 -8l17 -52h-41zM312 0v1q3 4 42 60l51 73q2 3 2 6v8q0 5 -3.5 8.5t-8.5 3.5h-114q-5 0 -8.5 -3.5t-3.5 -8.5v-8q0 -5 3.5 -8.5t8.5 -3.5h78l-93 -133q-2 -3 -2 -7v-8
q0 -5 3.5 -8.5t8.5 -3.5h120q5 0 8.5 3.5t3.5 8.5v8q0 5 -3.5 8.5t-8.5 3.5h-84z" />
    <glyph glyph-name="sort-amount-down" unicode="&#xf160;" 
d="M204 56l-84 -84q-3 -4 -8 -4t-8 4l-84 84q-4 4 -4 8.5t4 8.5l7 7q3 4 8 4t9 -4l51 -52v376q0 5 3.5 8.5t8.5 3.5h10q5 0 8.5 -3.5t3.5 -8.5v-376l51 52q4 4 9 4t8 -4l7 -7q4 -4 4 -8.5t-4 -8.5zM384 140v8q0 5 -3.5 8.5t-8.5 3.5h-104q-5 0 -8.5 -3.5t-3.5 -8.5v-8
q0 -5 3.5 -8.5t8.5 -3.5h104q5 0 8.5 3.5t3.5 8.5zM448 236v8q0 5 -3.5 8.5t-8.5 3.5h-168q-5 0 -8.5 -3.5t-3.5 -8.5v-8q0 -5 3.5 -8.5t8.5 -3.5h168q5 0 8.5 3.5t3.5 8.5zM512 332v8q0 5 -3.5 8.5t-8.5 3.5h-232q-5 0 -8.5 -3.5t-3.5 -8.5v-8q0 -5 3.5 -8.5t8.5 -3.5h232
q5 0 8.5 3.5t3.5 8.5zM320 44v8q0 5 -3.5 8.5t-8.5 3.5h-40q-5 0 -8.5 -3.5t-3.5 -8.5v-8q0 -5 3.5 -8.5t8.5 -3.5h40q5 0 8.5 3.5t3.5 8.5z" />
    <glyph glyph-name="sort-amount-up" unicode="&#xf161;" 
d="M20 328l84 84q3 4 8 4t8 -4l84 -84q4 -4 4 -8.5t-4 -8.5l-7 -7q-3 -4 -8 -4t-9 4l-51 52v-376q0 -5 -3.5 -8.5t-8.5 -3.5h-10q-5 0 -8.5 3.5t-3.5 8.5v376l-51 -52q-4 -4 -9 -4t-8 4l-7 7q-4 4 -4 8.5t4 8.5zM384 140v8q0 5 -3.5 8.5t-8.5 3.5h-104q-5 0 -8.5 -3.5
t-3.5 -8.5v-8q0 -5 3.5 -8.5t8.5 -3.5h104q5 0 8.5 3.5t3.5 8.5zM448 236v8q0 5 -3.5 8.5t-8.5 3.5h-168q-5 0 -8.5 -3.5t-3.5 -8.5v-8q0 -5 3.5 -8.5t8.5 -3.5h168q5 0 8.5 3.5t3.5 8.5zM512 332v8q0 5 -3.5 8.5t-8.5 3.5h-232q-5 0 -8.5 -3.5t-3.5 -8.5v-8q0 -5 3.5 -8.5
t8.5 -3.5h232q5 0 8.5 3.5t3.5 8.5zM320 44v8q0 5 -3.5 8.5t-8.5 3.5h-40q-5 0 -8.5 -3.5t-3.5 -8.5v-8q0 -5 3.5 -8.5t8.5 -3.5h40q5 0 8.5 3.5t3.5 8.5z" />
    <glyph glyph-name="sort-numeric-down" unicode="&#xf162;" horiz-adv-x="448" 
d="M204 56l-84 -84q-3 -4 -8 -4t-8 4l-84 84q-4 4 -4 8.5t4 8.5l7 7q3 4 8 4t9 -4l51 -52v376q0 5 3.5 8.5t8.5 3.5h10q5 0 8.5 -3.5t3.5 -8.5v-376l51 52q4 4 9 4t8 -4l7 -7q4 -4 4 -8.5t-4 -8.5zM344 360v-99v-2h-28q-5 0 -8.5 -3.5t-3.5 -8.5v-11q0 -5 3.5 -8.5t8.5 -3.5
h96q5 0 8.5 3.5t3.5 8.5v11q0 5 -3.5 8.5t-8.5 3.5h-28v145q0 5 -3.5 8.5t-8.5 3.5h-18q-5 0 -8 -3l-38 -37q-4 -3 -4 -8t4 -9l8 -9q4 -4 9 -4t8 4zM432 73q0 -45 -23 -75q-26 -33 -67 -33q-17 0 -31 5q-5 2 -7 6.5t0 8.5l4 13q2 5 6 7t9 1q21 -7 37.5 1.5t23.5 32.5
q-19 -11 -41 -7t-37.5 21.5t-15.5 42.5q0 28 19.5 47t47.5 19q32 0 53 -23q22 -25 22 -67zM389 88q0 13 -9.5 25t-21.5 12t-18.5 -8t-6.5 -21t8 -20.5t23 -7.5q11 0 18 5.5t7 14.5z" />
    <glyph glyph-name="sort-numeric-up" unicode="&#xf163;" horiz-adv-x="448" 
d="M20 328l84 84q3 4 8 4t8 -4l84 -84q4 -4 4 -8.5t-4 -8.5l-7 -7q-3 -4 -8 -4t-9 4l-51 52v-376q0 -5 -3.5 -8.5t-8.5 -3.5h-10q-5 0 -8.5 3.5t-3.5 8.5v376l-51 -52q-4 -4 -9 -4t-8 4l-7 7q-4 4 -4 8.5t4 8.5zM344 360v-99v-2h-28q-5 0 -8.5 -3.5t-3.5 -8.5v-11
q0 -5 3.5 -8.5t8.5 -3.5h96q5 0 8.5 3.5t3.5 8.5v11q0 5 -3.5 8.5t-8.5 3.5h-28v145q0 5 -3.5 8.5t-8.5 3.5h-18q-5 0 -8 -3l-38 -37q-4 -3 -4 -8t4 -9l8 -9q4 -4 9 -4t8 4zM432 73q0 -45 -23 -75q-26 -33 -67 -33q-17 0 -31 5q-5 2 -7 6.5t0 8.5l4 13q2 5 6 7t9 1
q21 -7 37.5 1.5t23.5 32.5q-19 -11 -41 -7t-37.5 21.5t-15.5 42.5q0 28 19.5 47t47.5 19q32 0 53 -23q22 -25 22 -67zM389 88q0 13 -9.5 25t-21.5 12t-18.5 -8t-6.5 -21t8 -20.5t23 -7.5q11 0 18 5.5t7 14.5z" />
    <glyph glyph-name="thumbs-up" unicode="&#xf164;" 
d="M497 162q15 20 15 49.5t-21.5 51.5t-51.5 22h-70l2 3q9 18 13 29q6 19 6 38q0 45 -20 69t-63 24q-34 0 -47 -67q-3 -17 -6 -25q-4 -13 -10 -19q-10 -9 -32 -39q-18 -23 -27 -33q-14 -16 -23 -21q-3 -1 -8 -2q-9 14 -26 14h-96q-13 0 -22.5 -9.5t-9.5 -22.5v-256
q0 -13 9.5 -22.5t22.5 -9.5h96q13 0 22.5 9.5t9.5 22.5v9q9 0 23 -4l30 -10q37 -13 58 -18q36 -9 66 -9h41q44 0 68 24.5t23 65.5q11 13 16 31t2 36q9 14 11.5 33t-1.5 36zM32 -32v256h96v-256h-96zM456 172q8 -6 10.5 -21t-1.5 -30t-15 -20q10 -16 4.5 -35.5t-19.5 -26.5
q6 -37 -11 -55q-15 -16 -46 -16h-41q-27 0 -59 8q-18 5 -52 16q-25 9 -36 12q-18 5 -30 5v203q17 0 38 20q12 12 36 43q22 29 32.5 39.5t17.5 28.5q3 10 7 32q4 16 6 23q4 12 10 18q33 0 44 -21q7 -12 7 -40q0 -14 -5 -28q-3 -9 -10.5 -24t-10.5 -23q-5 -13 -5 -27h112
q17 0 29 -12.5t12 -28t-6 -26.5t-18 -14zM104 16q0 -10 -7 -17t-17 -7t-17 7t-7 17t7 17t17 7t17 -7t7 -17z" />
    <glyph glyph-name="thumbs-down" unicode="&#xf165;" 
d="M497 222q4 17 1.5 36t-11.5 33q3 18 -2 36t-16 31q1 41 -23 65.5t-68 24.5h-41q-30 0 -64 -8q-21 -5 -56 -18q-22 -7 -32 -10q-15 -4 -25 -4h-11q-9 8 -21 8h-96q-13 0 -22.5 -9.5t-9.5 -22.5v-256q0 -13 9.5 -22.5t22.5 -9.5h96q13 0 22.5 9.5t9.5 22.5v12h2
q9 -5 23 -21q9 -10 27 -33q22 -30 32 -39q6 -6 10 -19q3 -8 6 -25v0q13 -67 47 -67q43 0 63 24t20 69q0 19 -6 38q-4 11 -13 29l-2 3h70q30 0 51.5 22t21.5 51.5t-15 49.5zM128 128h-96v256h96v-256zM439 131h-112q0 -14 5 -27q3 -8 10.5 -23t10.5 -24q5 -14 5 -28
q0 -28 -7 -40q-11 -21 -44 -21q-6 6 -10 18q-2 7 -6 23q-4 22 -7 32q-7 18 -18 29q-9 9 -30 36q-25 32 -37 45q-21 21 -35 21h-4v203h4q10 0 26 5q9 2 32 10q35 12 54 17q34 9 61 9h41q31 0 46 -16q17 -18 11 -55q14 -7 19.5 -26.5t-4.5 -35.5q11 -5 15 -20t1.5 -30
t-10.5 -21q12 -3 18 -14t6 -26.5t-12 -28t-29 -12.5zM104 176q0 -10 -7 -17t-17 -7t-17 7t-7 17t7 17t17 7t17 -7t7 -17z" />
    <glyph glyph-name="long-arrow-down" unicode="&#xf175;" horiz-adv-x="256" 
d="M252 105l-7 7q-3 4 -8 4t-9 -4l-83 -84v376q0 5 -3.5 8.5t-8.5 3.5h-10q-5 0 -8.5 -3.5t-3.5 -8.5v-376l-83 84q-4 4 -9 4t-8 -4l-7 -7q-4 -4 -4 -8.5t4 -8.5l116 -116q3 -4 8 -4t8 4l116 116q4 4 4 8.5t-4 8.5z" />
    <glyph glyph-name="long-arrow-up" unicode="&#xf176;" horiz-adv-x="256" 
d="M4 279l7 -7q3 -4 8 -4t9 4l83 84v-376q0 -5 3.5 -8.5t8.5 -3.5h10q5 0 8.5 3.5t3.5 8.5v376l83 -84q4 -4 9 -4t8 4l7 7q4 4 4 8.5t-4 8.5l-116 116q-3 4 -8 4t-8 -4l-116 -116q-4 -4 -4 -8.5t4 -8.5z" />
    <glyph glyph-name="long-arrow-left" unicode="&#xf177;" horiz-adv-x="448" 
d="M137 68l7 7q4 3 4 8t-4 9l-84 83h376q5 0 8.5 3.5t3.5 8.5v10q0 5 -3.5 8.5t-8.5 3.5h-376l84 83q4 4 4 9t-4 8l-7 7q-4 4 -8.5 4t-8.5 -4l-116 -116q-4 -3 -4 -8t4 -8l116 -116q4 -4 8.5 -4t8.5 4z" />
    <glyph glyph-name="long-arrow-right" unicode="&#xf178;" horiz-adv-x="448" 
d="M311 316l-7 -7q-4 -3 -4 -8t4 -9l84 -83h-376q-5 0 -8.5 -3.5t-3.5 -8.5v-10q0 -5 3.5 -8.5t8.5 -3.5h376l-84 -83q-4 -4 -4 -9t4 -8l7 -7q4 -4 8.5 -4t8.5 4l116 116q4 3 4 8t-4 8l-116 116q-4 4 -8.5 4t-8.5 -4z" />
    <glyph glyph-name="archive" unicode="&#xf187;" 
d="M464 416h-416q-20 0 -34 -14t-14 -34v-64q0 -7 4.5 -11.5t11.5 -4.5h16v-272q0 -20 14 -34t34 -14h352q20 0 34 14t14 34v272h16q7 0 11.5 4.5t4.5 11.5v64q0 20 -14 34t-34 14zM448 16q0 -7 -4.5 -11.5t-11.5 -4.5h-352q-7 0 -11.5 4.5t-4.5 11.5v272h384v-272zM480 320
h-448v48q0 7 4.5 11.5t11.5 4.5h416q7 0 11.5 -4.5t4.5 -11.5v-48zM204 192h104q5 0 8.5 3.5t3.5 8.5v8q0 5 -3.5 8.5t-8.5 3.5h-104q-5 0 -8.5 -3.5t-3.5 -8.5v-8q0 -5 3.5 -8.5t8.5 -3.5z" />
    <glyph glyph-name="caret-square-left" unicode="&#xf191;" horiz-adv-x="448" 
d="M448 16v352q0 20 -14 34t-34 14h-352q-20 0 -34 -14t-14 -34v-352q0 -20 14 -34t34 -14h352q20 0 34 14t14 34zM48 0q-7 0 -11.5 4.5t-4.5 11.5v352q0 7 4.5 11.5t11.5 4.5h352q7 0 11.5 -4.5t4.5 -11.5v-352q0 -7 -4.5 -11.5t-11.5 -4.5h-352zM256 96l-96 96l96 96v-192
zM288 288q0 14 -9.5 23t-22.5 9t-23 -9l-96 -96q-9 -10 -9 -23t9 -23l96 -96q10 -9 23 -9t22.5 9t9.5 23v192z" />
    <glyph glyph-name="dot-circle" unicode="&#xf192;" 
d="M256 440q-67 0 -124 -33.5t-90.5 -90.5t-33.5 -124t33.5 -124t90.5 -90.5t124 -33.5t124 33.5t90.5 90.5t33.5 124t-33.5 124t-90.5 90.5t-124 33.5zM256 -24q-58 0 -108 29t-79 78.5t-29 108t29 108.5t78.5 79t108 29t108.5 -29t79 -78.5t29 -108t-29 -108.5t-78.5 -79
t-108.5 -29zM256 272q-33 0 -56.5 -23.5t-23.5 -56.5t23.5 -56.5t56.5 -23.5t56.5 23.5t23.5 56.5t-23.5 56.5t-56.5 23.5zM256 144q-20 0 -34 14t-14 34t14 34t34 14t34 -14t14 -34t-14 -34t-34 -14z" />
    <glyph glyph-name="building" unicode="&#xf1ad;" horiz-adv-x="448" 
d="M192 341v-40q0 -5 -3.5 -8.5t-8.5 -3.5h-40q-5 0 -8.5 3.5t-3.5 8.5v40q0 5 3.5 8.5t8.5 3.5h40q5 0 8.5 -3.5t3.5 -8.5zM308 353h-40q-5 0 -8.5 -3.5t-3.5 -8.5v-40q0 -5 3.5 -8.5t8.5 -3.5h40q5 0 8.5 3.5t3.5 8.5v40q0 5 -3.5 8.5t-8.5 3.5zM180 257h-40
q-5 0 -8.5 -3.5t-3.5 -8.5v-40q0 -5 3.5 -8.5t8.5 -3.5h40q5 0 8.5 3.5t3.5 8.5v40q0 5 -3.5 8.5t-8.5 3.5zM308 257h-40q-5 0 -8.5 -3.5t-3.5 -8.5v-40q0 -5 3.5 -8.5t8.5 -3.5h40q5 0 8.5 3.5t3.5 8.5v40q0 5 -3.5 8.5t-8.5 3.5zM180 161h-40q-5 0 -8.5 -3.5t-3.5 -8.5
v-40q0 -5 3.5 -8.5t8.5 -3.5h40q5 0 8.5 3.5t3.5 8.5v40q0 5 -3.5 8.5t-8.5 3.5zM308 161h-40q-5 0 -8.5 -3.5t-3.5 -8.5v-40q0 -5 3.5 -8.5t8.5 -3.5h40q5 0 8.5 3.5t3.5 8.5v40q0 5 -3.5 8.5t-8.5 3.5zM448 -44v-20h-448v20q0 5 3.5 8.5t8.5 3.5h20v456q0 10 7 17t17 7
h336q10 0 17 -7t7 -17v-456h20q5 0 8.5 -3.5t3.5 -8.5zM384 -32v448h-320v-448h128v85q0 5 3.5 8.5t8.5 3.5h40q5 0 8.5 -3.5t3.5 -8.5v-85h128z" />
    <glyph glyph-name="tree" unicode="&#xf1bb;" horiz-adv-x="448" 
d="M444 59l-74 85h30q10 0 14.5 9.5t-2.5 16.5l-72 86h28q10 0 14.5 9.5t-2.5 17.5l-144 160q-5 5 -12 5t-12 -5l-144 -160q-7 -8 -2.5 -17.5t14.5 -9.5h28l-72 -86q-7 -7 -2.5 -16.5t14.5 -9.5h30l-74 -85q-7 -8 -2.5 -17.5t14.5 -9.5h160v-24l-24 -49q-4 -8 0.5 -15.5
t13.5 -7.5h116q9 0 13.5 7.5t0.5 15.5l-24 49v24h160q10 0 14.5 9.5t-2.5 17.5zM192 -32l16 32v32h32v-32l16 -32h-64zM51 64l96 112h-64l94 112h-61l108 120l108 -120h-61l95 -112h-65l96 -112h-346z" />
    <glyph glyph-name="database" unicode="&#xf1c0;" horiz-adv-x="448" 
d="M224 416q52 0 96 -8.5t70 -23.5t26 -32v-32q0 -17 -26 -32t-70 -23.5t-96 -8.5t-96 8.5t-70 23.5t-26 32v32q0 17 26 32t70 23.5t96 8.5zM416 267v-43q0 -17 -26 -32t-70 -23.5t-96 -8.5t-96 8.5t-70 23.5t-26 32v43q30 -21 83 -33q50 -10 109 -10t109 10q53 12 83 33z
M416 171v-43q0 -17 -26 -32t-70 -23.5t-96 -8.5t-96 8.5t-70 23.5t-26 32v43q30 -21 83 -33q50 -10 109 -10t109 10q53 12 83 33zM416 75v-43q0 -17 -26 -32t-70 -23.5t-96 -8.5t-96 8.5t-70 23.5t-26 32v43q30 -21 83 -33q50 -10 109 -10t109 10q53 12 83 33zM224 448
q-47 0 -93 -8q-57 -9 -90 -29q-41 -23 -41 -59v-320q0 -36 41 -59q33 -20 90 -29q46 -8 93 -8t93 8q57 9 90 29q41 23 41 59v320q0 36 -41 59q-33 20 -90 29q-46 8 -93 8z" />
    <glyph glyph-name="file-audio" unicode="&#xf1c7;" horiz-adv-x="384" 
d="M370 350l-84 84q-14 14 -34 14h-204q-20 0 -34 -14t-14 -34v-416q0 -20 14 -34t34 -14h288q20 0 34 14t14 34v332q0 20 -14 34zM347 327q3 -3 5 -7h-96v96q4 -2 7 -5zM336 -32h-288q-7 0 -11.5 4.5t-4.5 11.5v416q0 7 4.5 11.5t11.5 4.5h176v-104q0 -10 7 -17t17 -7h104
v-304q0 -7 -4.5 -11.5t-11.5 -4.5zM258 35q29 19 45.5 50t16.5 65q0 38 -18.5 70t-49.5 50q-6 4 -12 2.5t-9 -7t-1.5 -11.5t6.5 -9q25 -15 39.5 -40.5t14.5 -53.5t-13 -52t-36 -40q-5 -3 -6 -9t3 -12t12 -6q5 0 8 3zM232 73q19 13 30 33.5t11 44.5t-12.5 45.5t-33.5 34.5
q-5 3 -11 1.5t-9.5 -7t-1.5 -11.5t7 -9q14 -9 22.5 -23.5t8.5 -30.5t-7.5 -30t-20.5 -23q-5 -3 -6 -9.5t2.5 -12t11.5 -5.5q5 -1 9 2zM205 111q10 6 16 16.5t6 23t-6.5 23.5t-18.5 17q-5 3 -11 1t-9 -7.5t-1 -11.5t7 -8q9 -5 9 -14.5t-8 -13.5q-5 -4 -6.5 -10t2.5 -12t12 -6
q4 0 8 2zM138 181v-74l-26 19h-18v36h18zM156 232q-5 0 -8 -4l-44 -36h-28q-5 0 -8.5 -3.5t-3.5 -8.5v-72q0 -5 3.5 -8.5t8.5 -3.5h28l44 -36q3 -4 8 -4t8.5 3.5t3.5 8.5v152q0 5 -3.5 8.5t-8.5 3.5z" />
    <glyph glyph-name="life-ring" unicode="&#xf1cd;" 
d="M256 440q-67 0 -124 -33.5t-90.5 -90.5t-33.5 -124t33.5 -124t90.5 -90.5t124 -33.5t124 33.5t90.5 90.5t33.5 124t-33.5 124t-90.5 90.5t-124 33.5zM425 327l-63 -63q-14 20 -34 34l63 63q19 -15 34 -34zM256 96q-40 0 -68 28t-28 68t28 68t68 28t68 -28t28 -68t-28 -68
t-68 -28zM364 379l-66 -66q-42 14 -84 0l-66 66q50 29 108 29t108 -29zM121 361l63 -63q-20 -14 -34 -34l-63 63q15 19 34 34zM69 300l66 -66q-14 -42 0 -84l-66 -66q-29 50 -29 108t29 108zM87 57l63 63q14 -20 34 -34l-63 -63q-19 15 -34 34zM148 5l66 66q42 -14 84 0
l66 -66q-50 -29 -108 -29t-108 29zM391 23l-63 63q20 14 34 34l63 -63q-15 -19 -34 -34zM443 84l-66 66q14 42 0 84l66 66q29 -50 29 -108t-29 -108z" />
    <glyph glyph-name="circle-notch" unicode="&#xf1ce;" 
d="M288 424v-8q0 -5 2.5 -8t7.5 -4q49 -10 88.5 -40t62.5 -75t23 -97q0 -58 -29 -108t-78.5 -79t-108 -29t-108.5 29t-79 78.5t-29 108.5q0 51 22.5 96t62.5 75.5t89 40.5q5 1 7.5 4t2.5 8v8q0 6 -4.5 9.5t-9.5 2.5q-57 -11 -103.5 -46t-72.5 -87.5t-26 -111.5
q0 -68 33.5 -124.5t90.5 -89.5t124.5 -33t124 33.5t90 90.5t33.5 124q0 60 -26.5 111.5t-72.5 86.5t-103 46q-5 1 -9.5 -2.5t-4.5 -9.5z" />
    <glyph glyph-name="history" unicode="&#xf1da;" 
d="M20 424h10q5 0 8.5 -3.5t3.5 -8.5v-95q33 57 90 90t124.5 33t124.5 -33.5t90 -90.5t33 -124.5t-33.5 -124t-90.5 -90t-124 -33.5q-47 0 -90 17t-76 47q-4 3 -4 8.5t3 8.5l7 7q4 4 8.5 4t8.5 -3q29 -26 65.5 -40.5t77.5 -14.5q58 0 107 28.5t78 78t29 107.5t-28.5 107
t-78 78t-107.5 29q-61 0 -112 -31.5t-78 -84.5h98q5 0 8.5 -3.5t3.5 -8.5v-10q0 -5 -3.5 -8.5t-8.5 -3.5h-144q-5 0 -8.5 3.5t-3.5 8.5v144q0 5 3.5 8.5t8.5 3.5zM342 109l4 6q3 4 2.5 9t-4.5 8l-72 52v148q0 5 -3.5 8.5t-8.5 3.5h-8q-5 0 -8.5 -3.5t-3.5 -8.5v-164l85 -62
q4 -3 9 -2t8 5z" />
    <glyph glyph-name="wifi" unicode="&#xf1eb;" horiz-adv-x="640" 
d="M320 128q-33 0 -56.5 -23.5t-23.5 -56.5t23.5 -56.5t56.5 -23.5t56.5 23.5t23.5 56.5t-23.5 56.5t-56.5 23.5zM320 0q-20 0 -34 14t-14 34t14 34t34 14t34 -14t14 -34t-14 -34t-34 -14zM636 290q-87 83 -203 112q-113 28 -226 0q-116 -29 -203 -112q-4 -3 -4 -8.5t4 -8.5
l5 -6q4 -3 8.5 -3.5t8.5 3.5q81 77 189 104q105 26 210 0q108 -27 189 -104q4 -4 8.5 -3.5t8.5 3.5l5 6q4 3 4 8.5t-4 8.5zM526 178q-58 51 -132 69t-148 0t-132 -69q-4 -4 -4 -9t3 -9l6 -5q3 -4 8 -4t9 3q51 46 117.5 62t133 0t118.5 -62q3 -3 8 -3t8 4l6 5q3 4 3 9t-4 9z
" />
    <glyph glyph-name="trash" unicode="&#xf1f8;" 
d="M368 384l-34 45q-14 19 -38 19h-80q-24 0 -38 -19l-34 -45h-104q-10 0 -17 -7t-7 -17v-2q0 -2 2 -4t4 -2h21l33 -372q2 -19 15.5 -31.5t32.5 -12.5h264q19 0 32.5 12.5t15.5 31.5l33 372h21q2 0 4 2t2 4v2q0 10 -7 17t-17 7h-104zM216 416h80q8 0 13 -6l19 -26h-144
l19 26q5 6 13 6zM404 -17q-1 -7 -5.5 -11t-10.5 -4h-264q-6 0 -10.5 4t-5.5 11l-33 369h362z" />
    <glyph glyph-name="copyright" unicode="&#xf1f9;" 
d="M256 440q-67 0 -124 -33.5t-90.5 -90.5t-33.5 -124t33.5 -124t90.5 -90.5t124 -33.5t124 33.5t90.5 90.5t33.5 124t-33.5 124t-90.5 90.5t-124 33.5zM472 192q0 -58 -29 -108t-78.5 -79t-108 -29t-108.5 29t-79 78.5t-29 108t29 108.5t78.5 79t108 29t108.5 -29t79 -78.5
t29 -108.5zM360 91q-13 -14 -32 -23q-32 -16 -68 -16q-38 0 -69 18.5t-49 50.5t-18 71t17.5 70.5t48.5 49.5t69 18q35 0 64 -13q18 -8 30 -19q4 -3 4.5 -8t-2.5 -8l-9 -12q-3 -5 -8 -5.5t-9 2.5q-30 24 -70 24t-66.5 -28t-26.5 -71t27 -72t68 -29q25 0 49 12q14 7 25 17
q3 3 8.5 2.5t8.5 -4.5l9 -11q3 -4 3 -8.5t-4 -7.5z" />
    <glyph glyph-name="at" unicode="&#xf1fa;" 
d="M256 440q-67 0 -124 -33.5t-90.5 -90.5t-33.5 -124t33.5 -124t90.5 -90.5t124 -33.5q40 0 77.5 12.5t69.5 35.5q4 3 4.5 8.5t-2.5 9.5l-5 6q-3 3 -7.5 4t-8.5 -2q-28 -20 -61 -31t-67 -11q-59 0 -108.5 29t-78.5 78.5t-29 108.5t29 108.5t78.5 78.5t108.5 29t108.5 -25
t77.5 -70q30 -47 30 -105q0 -52 -34 -81q-32 -27 -82 -27q-14 0 -18.5 8t-1.5 26l33 164q1 5 -3 9.5t-9 4.5h-13q-4 0 -7.5 -2.5t-3.5 -7.5l-1 -4q-2 -11 -3 -21q-9 20 -28.5 31.5t-45.5 11.5q-34 0 -64.5 -20t-48.5 -55q-20 -37 -20 -83t24 -72t67 -26q27 0 52 15
q21 13 34 32q0 -20 12.5 -31t33.5 -11q79 0 120 39q39 36 39 100q0 67 -34 121q-32 52 -89 81.5t-125 29.5zM218 97q-27 0 -42.5 18t-15.5 50q0 35 14 64q14 27 36.5 42t46.5 15q28 0 43 -18t15 -47.5t-12.5 -58t-33.5 -46.5q-23 -19 -51 -19z" />
    <glyph glyph-name="chart-area" unicode="&#xf1fe;" 
d="M500 32q5 0 8.5 -3.5t3.5 -8.5v-8q0 -5 -3.5 -8.5t-8.5 -3.5h-488q-5 0 -8.5 3.5t-3.5 8.5v360q0 5 3.5 8.5t8.5 3.5h8q5 0 8.5 -3.5t3.5 -8.5v-340h468zM372 286l-84 -54l-86 85q-4 3 -9.5 3t-8.5 -4l-120 -156v-96h416l-90 217q-3 5 -8 6.5t-10 -1.5zM96 149l99 131
l89 -89l86 57l62 -152h-336v53z" />
    </font>
</defs>
</svg>
